Tags
Language
Tags

Il Divo - Collection (2004-2018)

Posted By: Discograf_man
Il Divo - Collection (2004-2018)

Il Divo - Collection (2004-2018)
FLAC (*image+.cue+log,scans) (*tracks+.cue+log,scans) | Run Time: 10:28:09 | 4.92 Gb
Genre: Classical crossover, Operatic pop | Label: Columbia, Syco Music, Sony

Il Divo is a multi-national classical crossover vocal group. The male quartet originated in the United Kingdom in December 2003, bringing together singers Urs Bühler (Switzerland), Carlos Marín (Spain), David Miller (USA), and Sébastien Izambard (France). Since its inception, Il Divo has enjoyed success worldwide, selling well over 30 million copies of its albums worldwide. With 160 certified gold and platinum hits in 35 different countries, it pioneered the genre of operatic pop, or "popera", in classical crossover music.
As of 2018, the group has released ten albums: Il Divo (2004), Ancora (2005), Siempre (2006), The Promise (2008), Wicked Game (2011), A Musical Affair (2013), Amor & Pasión (2015) and Timeless (2018) ; a compilation album The Greatest Hits (2012); special Christmas songs album The Christmas Collection (2005). Two other albums – An Evening with Il Divo: Live in Barcelona (2009) and Live in Japan (2014) – presented recordings of live concerts. Additionally, they have collaborated with other artists.
Il Divo was named "Artist of the Decade" at the 2011 Classic Brit Awards. In 2015, another award came their way, the Silver Clef Award from the Nordoff Robbins music therapy charity.
Il Divo became an international musical sensation after they became the first classical crossover group in history to reach the top of the Billboard 200 (USA) list in 2005. At the same time, the group positioned itself at the top of the Adult Contemporary list.
Contents:

2004 - Il Divo
2005 - Ancora
2005 - The Christmas Collection
2006 - Siempre
2008 - The Promise
2009 - Live in Barcelona
2011 - Wicked Game
2012 - The Greatest Hits
2013 - A Musical Affair
2014 - A Musical Affair - Live In Japan
2015 - Amor & Pasion
2018 - Timeless

2004 - IL DIVO - 53:52 •●★●• Columbia/United States/CN 94254

01. Unbreak My Heart (Regresa a mi)
02. Mama
03. Nella fantasia
04. Passerà
05. Unchained Melody (Senza catene)
06. Everytime I Look at You
07. Ti amerò
08. Dentro un altro si
09. The Man You Love
10. Feelings
11. Hoy que ya no estás aquí
12. Sei parte ormai di me
13. My Way (A mi manera)

2005 - THE CHRISTMAS COLLECTION - 36:59 •●★●• Columbia/United States/CK 97715

01. O Holy Night
02. White Christmas
03. Ave Maria
04. When a Child Is Born (Soleado)
05. Adeste fideles (O Come All Ye Faithful)
06. Over the Rainbow
07. Panis angelicus
08. Rejoice
09. Silent Night
10. The Lord's Prayer

2005 - ANCORA - 39:48 •●★●• Columbia/United States/82876 76914 2

01. All by Myself (Solo otra vez)
02. Isabel
03. I Believe in You [with Celine Dion]
04. You Raise Me Up (Por ti seré)
05. Si tú me amas
06. Hasta mi final
07. Heroe
08. En Aranjuez con tu amor
09. Esisti dentro me
10. Pour que tu m'aimes encore

2006 - SIEMPRE - 49:04 •●★●• Columbia/United States/88697 02673 2

01. Nights in White Satin (Notte di luce)
02. Caruso
03. Without You (Desde el dia que te fuiste)
04. Come primavera
05. Have You Ever Really Loved a Woman (Un regalo que te dio la vida)
06. La vida sin amor
07. Una noche
08. Tell That to My Heart (Amor venme a buscar)
09. Musica
10. Somewhere
11. Unchained Melody (Live at the Greek Theatre)
12. Heroe (Live at the Greek Theatre)

2008 - THE PROMISE - 48:38 •●★●• BMG Japan/BVCP-21650

01. The Power of Love (La fuerza mayor)
02. La promessa
03. Adagio
04. Hallelujah (Aleluya)
05. L'alba del mondo
06. Enamorado
07. Angelina
08. The Winner Takes It All (Va todo al ganador)
09. La luna
10. She
11. Amazing Grace
12. With You I'm Born Again (Por ti vuelvo a nacer)

2009 - LIVE IN BARCELONA - 41:52 •●★●• Columbia/United States/88697606692

01. Unbreak My Heart (Regresa a mi)
02. Unchained Melody (Senza catene)
03. La promessa
04. Adagio
05. Somewhere
06. Nights in White Satin (Notte di luce)
07. Without You (Desde el dia que te fuiste)
08. Hallelujah (Aleluya)
09. Amazing Grace
10. My Way (A mi manera)

2011 - WICKED GAME - 41:05 •●★●• Columbia/United States/88697964482

01. Wicked Game (Melanconia)
02. Crying (Llorando)
03. Don't Cry for Me Argentina
04. Dov'è l'amore
05. Falling Slowly (Te prometo)
06. Come What May (Te amare)
07. Senza parole
08. Stay (Ven a mi)
09. Sempre sempre
10. Time to Say Goodbye (Con te partirò)

2012 - The Greatest Hits

CD1

01 My Heart Will Go On (Il Mio Cuore Va)
02 I Will Always Love You (Siempre Te Amare)
03 Can't Help Falling In Love
04 Alone (Solo)
05 Unchained Melody (Senza Catene)
06 Amazing Grace
07 Heroe
08 Unbreak My Heart (Regresa A Mi)
09 Somewhere
10 Passera
11 All By Myself (Solo Otra Vez)
12 Mama
13 Adagio
14 Without You
15 Caruso
16 Don't Cry For Me Argentina
17 My Way (A Mi Manera)
18 Time To Say Goodbye (Con Te Partiro)

CD2

01 Nights In White Satin (Notte Di Luce)
02 Nella Fantasia
03 Ave Maria
04 La Vida Sin Amor
05 Everytime I Look At You
06 The Power Of Love (La Fuerza Mayor)
07 You Raise Me Up (Por Ti Sere)
08 Crying (Llorando)
09 She
10 Hallelujah (Aleluya)
11 Pour Que Tu M'aimes Encore
12 The Impossible Dream (Live)
13 O Holy Night

2013 - A Musical Affair

01 Memory (feat. Nicole Scherzinger)
02 Can You Feel the Love Tonight (feat. Heather Headley)
03 Bring Him Home
04 Tonight
05 All I Ask of You (feat. Kristin Chenoweth)
06 Some Enchanted Evening
07 Who Can I Turn To?
08 Who Wants to Live Forever
09 You'll Never Walk Alone
10 If Ever I Would Leave You
11 Love Changes Everything (Michael Ball and Il Divo)
12 The Music of the Night (Live in Concert) (Barbra Streisand with Il Divo)

2014 - A Musical Affair - Live In Japan

01 Tonight
02 Some Enchanted Evening
03 Can You Feel The Love Tonight? (Duet with Lea Salonga)
04 Memory (Duet with Lea Salonga)
05 I Will Always Love You (Siempre Te Amare)
06 Don't Cry For Me Argentina
07 Somewhere
08 The Winner Takes It All (Va Todo Al Ganador)
09 Bring Him Home
10 Love Changes Everything
11 Music of the Night (Duet with Lea Salonga)
12 The Impossible Dream
13 My Way (A Mi Manera)
14 Time To Say Goodbye (Duet with Lea Salonga)
15 A Whole New World (Duet with Lea Salonga)

2015 - Amor & Pasion

01. Por una Cabeza
02. Abrazame
03. Don’t Wanna Lose You (Si Voy a Perderte)
04. Quizás, Quizás, Quizás (Perhaps, Perhaps, Perhaps)
05. Bésame Mucho
06. Quién Será (Sway)
07. Volver
08. Historia de un Amor
09. Eres Tu
10. Contigo en la Distancia
11. To All the Girls I’ve Loved Before (A Las Mujeres Que Amé)
12. Himno de la Alegría (Ode to Joy)

2018 - Timeless

01 - Hola (00:04:50)
02 - All Of Me (00:04:54)
03 - Angels (00:03:59)
04 - Aqui Esperandote (00:04:04)
05 - Toi Et Moi (00:03:54)
06 - Grazie Amore Mio (00:04:08)
07 - Que Bonito Es Vivir (00:02:30)
08 - Love Me Tender (00:03:14)
09 - Unforgettable (00:03:23)
10 - Smile (00:03:25)


Exact Audio Copy V1.3 from 2. September 2016

EAC extraction logfile from 1. April 2017, 13:07

Il Divo / Il Divo

Used drive : TSSTcorpCDDVDW SN-S082N Adapter: 1 ID: 1

Read mode : Secure
Utilize accurate stream : Yes
Defeat audio cache : Yes
Make use of C2 pointers : No

Read offset correction : 6
Overread into Lead-In and Lead-Out : No
Fill up missing offset samples with silence : Yes
Delete leading and trailing silent blocks : No
Null samples used in CRC calculations : Yes
Used interface : Native Win32 interface for Win NT & 2000

Used output format : Internal WAV Routines
Sample format : 44.100 Hz; 16 Bit; Stereo

TOC of the extracted CD

Track | Start | Length | Start sector | End sector
––––––––––––––––––––––––––––-
1 | 0:00.00 | 4:42.26 | 0 | 21175
2 | 4:42.26 | 3:18.69 | 21176 | 36094
3 | 8:01.20 | 4:26.61 | 36095 | 56105
4 | 12:28.06 | 4:41.05 | 56106 | 77185
5 | 17:09.11 | 3:51.37 | 77186 | 94547
6 | 21:00.48 | 3:29.73 | 94548 | 110295
7 | 24:30.46 | 4:01.46 | 110296 | 128416
8 | 28:32.17 | 4:34.55 | 128417 | 149021
9 | 33:06.72 | 3:56.16 | 149022 | 166737
10 | 37:03.13 | 3:39.38 | 166738 | 183200
11 | 40:42.51 | 4:19.28 | 183201 | 202653
12 | 45:02.04 | 4:28.22 | 202654 | 222775
13 | 49:30.26 | 4:28.05 | 222776 | 242880

Range status and errors

Selected range

Filename D:\Il Divo - Il Divo (CN 94254).wav

Peak level 99.7 %
Extraction speed 1.1 X
Range quality 100.0 %
Test CRC 0D75840F
Copy CRC 0D75840F
Copy OK

No errors occurred

AccurateRip summary

Track 1 accurately ripped (confidence 71) [1EDA4FBC] (AR v2)
Track 2 accurately ripped (confidence 73) [B81162BE] (AR v2)
Track 3 accurately ripped (confidence 73) [03DE6EF7] (AR v2)
Track 4 accurately ripped (confidence 72) [4AB9AD05] (AR v2)
Track 5 accurately ripped (confidence 72) [011413B2] (AR v2)
Track 6 accurately ripped (confidence 71) [970B5427] (AR v2)
Track 7 accurately ripped (confidence 73) [9FEBC527] (AR v2)
Track 8 accurately ripped (confidence 72) [A74B4890] (AR v2)
Track 9 accurately ripped (confidence 71) [0F653C68] (AR v2)
Track 10 accurately ripped (confidence 72) [E8534568] (AR v2)
Track 11 accurately ripped (confidence 71) [0FA86EF3] (AR v2)
Track 12 accurately ripped (confidence 71) [06F4D593] (AR v2)
Track 13 accurately ripped (confidence 72) [5535FFD0] (AR v2)

All tracks accurately ripped

End of status report

–– CUETools DB Plugin V2.1.6

[CTDB TOCID: 76UNd.28kFgkHceKgEKGBxFs5OU-] found
Submit result: 76UNd.28kFgkHceKgEKGBxFs5OU- has been confirmed
Track | CTDB Status
1 | (91/93) Accurately ripped
2 | (92/93) Accurately ripped
3 | (92/93) Accurately ripped
4 | (92/93) Accurately ripped
5 | (91/93) Accurately ripped
6 | (91/93) Accurately ripped
7 | (92/93) Accurately ripped
8 | (91/93) Accurately ripped
9 | (91/93) Accurately ripped
10 | (89/93) Accurately ripped
11 | (91/93) Accurately ripped
12 | (91/93) Accurately ripped
13 | (92/93) Accurately ripped

==== Log checksum 1AE90BA76FAAFC001539FC51A4C287E459EE301D70054BED72CC1F03912B6ECE ====
==============================
Exact Audio Copy V1.3 from 2. September 2016

EAC extraction logfile from 11. June 2017, 10:45

Il Divo / The Christmas Collection

Used drive : TSSTcorpCDDVDW TS-L633C Adapter: 1 ID: 0

Read mode : Secure
Utilize accurate stream : Yes
Defeat audio cache : Yes
Make use of C2 pointers : No

Read offset correction : 6
Overread into Lead-In and Lead-Out : No
Fill up missing offset samples with silence : Yes
Delete leading and trailing silent blocks : No
Null samples used in CRC calculations : Yes
Used interface : Native Win32 interface for Win NT & 2000

Used output format : Internal WAV Routines
Sample format : 44.100 Hz; 16 Bit; Stereo

TOC of the extracted CD

Track | Start | Length | Start sector | End sector
––––––––––––––––––––––––––––-
1 | 0:00.00 | 4:01.12 | 0 | 18086
2 | 4:01.12 | 3:51.00 | 18087 | 35411
3 | 7:52.12 | 4:53.08 | 35412 | 57394
4 | 12:45.20 | 3:00.08 | 57395 | 70902
5 | 15:45.28 | 3:48.58 | 70903 | 88060
6 | 19:34.11 | 4:04.04 | 88061 | 106364
7 | 23:38.15 | 3:46.05 | 106365 | 123319
8 | 27:24.20 | 3:10.09 | 123320 | 137578
9 | 30:34.29 | 3:34.55 | 137579 | 153683
10 | 34:09.09 | 2:52.67 | 153684 | 166650

Range status and errors

Selected range

Filename D:\Il Divo - The Christmas Collection (CK 97715).wav

Peak level 100.0 %
Extraction speed 3.5 X
Range quality 100.0 %
Test CRC BDB45737
Copy CRC BDB45737
Copy OK

No errors occurred

AccurateRip summary

Track 1 accurately ripped (confidence 63) [CCAD8F53] (AR v2)
Track 2 accurately ripped (confidence 63) [4AF8D257] (AR v2)
Track 3 accurately ripped (confidence 61) [E34D96AC] (AR v2)
Track 4 accurately ripped (confidence 62) [805E10CF] (AR v2)
Track 5 accurately ripped (confidence 62) [E24D2839] (AR v2)
Track 6 accurately ripped (confidence 63) [9ED5295C] (AR v2)
Track 7 accurately ripped (confidence 62) [2C0E5832] (AR v2)
Track 8 accurately ripped (confidence 63) [C196EFB0] (AR v2)
Track 9 accurately ripped (confidence 63) [F4B77116] (AR v2)
Track 10 accurately ripped (confidence 61) [95C29DC0] (AR v2)

All tracks accurately ripped

End of status report

–– CUETools DB Plugin V2.1.6

[CTDB TOCID: ZiWxJ7JchRfg6HukckAUaMHsnXQ-] found
Submit result: ZiWxJ7JchRfg6HukckAUaMHsnXQ- has been confirmed
Track | CTDB Status
1 | (123/124) Accurately ripped
2 | (123/124) Accurately ripped
3 | (124/124) Accurately ripped
4 | (124/124) Accurately ripped
5 | (124/124) Accurately ripped
6 | (124/124) Accurately ripped
7 | (122/124) Accurately ripped
8 | (123/124) Accurately ripped
9 | (124/124) Accurately ripped
10 | (122/124) Accurately ripped

==== Log checksum D457DEC4B137661BA2E61878CBD53623C85BBE5A1A629D883B3D54A68030432C ====
==========================================
Exact Audio Copy V1.3 from 2. September 2016

EAC extraction logfile from 31. March 2017, 21:31

Il Divo / Ancora

Used drive : TSSTcorpCDDVDW SN-S082N Adapter: 1 ID: 1

Read mode : Secure
Utilize accurate stream : Yes
Defeat audio cache : Yes
Make use of C2 pointers : No

Read offset correction : 6
Overread into Lead-In and Lead-Out : No
Fill up missing offset samples with silence : Yes
Delete leading and trailing silent blocks : No
Null samples used in CRC calculations : Yes
Used interface : Native Win32 interface for Win NT & 2000

Used output format : Internal WAV Routines
Sample format : 44.100 Hz; 16 Bit; Stereo

TOC of the extracted CD

Track | Start | Length | Start sector | End sector
––––––––––––––––––––––––––––-
1 | 0:00.00 | 3:54.32 | 0 | 17581
2 | 3:54.32 | 4:16.11 | 17582 | 36792
3 | 8:10.43 | 4:01.00 | 36793 | 54867
4 | 12:11.43 | 4:01.01 | 54868 | 72943
5 | 16:12.44 | 4:09.00 | 72944 | 91618
6 | 20:21.44 | 3:36.74 | 91619 | 107892
7 | 23:58.43 | 4:17.74 | 107893 | 127241
8 | 28:16.42 | 3:51.74 | 127242 | 144640
9 | 32:08.41 | 3:50.52 | 144641 | 161942
10 | 35:59.18 | 3:53.73 | 161943 | 179490

Range status and errors

Selected range

Filename D:\Il Divo - Ancora (82876 76914 2).wav

Peak level 97.7 %
Extraction speed 3.9 X
Range quality 100.0 %
Test CRC 848D5499
Copy CRC 848D5499
Copy OK

No errors occurred

AccurateRip summary

Track 1 accurately ripped (confidence 40) [031047C8] (AR v2)
Track 2 accurately ripped (confidence 41) [31F22CED] (AR v2)
Track 3 accurately ripped (confidence 41) [D5D91FA9] (AR v2)
Track 4 accurately ripped (confidence 41) [911D372A] (AR v2)
Track 5 accurately ripped (confidence 41) [5B0E8F7F] (AR v2)
Track 6 accurately ripped (confidence 41) [979EA228] (AR v2)
Track 7 accurately ripped (confidence 41) [2758BCB3] (AR v2)
Track 8 accurately ripped (confidence 41) [2DA8F48A] (AR v2)
Track 9 accurately ripped (confidence 41) [6B137812] (AR v2)
Track 10 accurately ripped (confidence 41) [AD6B9015] (AR v2)

All tracks accurately ripped

End of status report

–– CUETools DB Plugin V2.1.6

[CTDB TOCID: Z2uWqiW7JQL2L47IGyPQYcrOEBE-] found
Submit result: Z2uWqiW7JQL2L47IGyPQYcrOEBE- has been confirmed
Track | CTDB Status
1 | (75/76) Accurately ripped
2 | (75/76) Accurately ripped
3 | (74/76) Accurately ripped
4 | (74/76) Accurately ripped
5 | (75/76) Accurately ripped
6 | (75/76) Accurately ripped
7 | (75/76) Accurately ripped
8 | (75/76) Accurately ripped
9 | (75/76) Accurately ripped
10 | (75/76) Accurately ripped

==== Log checksum 4AD58C08863CE479AE7BB1D85F3E8FDCA7D0EF89A6ABA2503B6AEFF75AED7BF3 ====


All 12 log files included…