Tags
Language
Tags

Ildebrando D'Arcangelo, Federico Maria Sardelli, Modo Antiquo - Handel: Arie italiene per basso (2009)

Posted By: ArlegZ
Ildebrando D'Arcangelo, Federico Maria Sardelli, Modo Antiquo - Handel: Arie italiene per basso (2009)

Ildebrando D'Arcangelo, Federico Maria Sardelli, Modo Antiquo - Handel: Arie italiene per basso (2009)
EAC | FLAC | Image (Cue & Log) ~ 334 Mb | Total time: 59:04 | Scans included
Classical | Label: Deutsche Grammophon | 477 8361 | Recorded: 2009

Handel Arias is the solo debut of one of the most exciting bass-baritones of today. Expertly advised by Baroque expert, Francesco Lora, Ildebrando fashions his debut album into a panoramic sweep of Italian Handel arias for bass-baritone. Mixing well-known and rare, lyric with highly virtuosic, Ildebrando’s phenomenal Handel shows the versatility and wide range of Handel’s compositions for bass-baritone and the vocal capacity of the singer to master this programme. Undeniably appealing to all voice and Baroque music lovers, this album will excite music lovers well beyond.

Performer:
Ildebrando D'Arcangelo, bass-baritone
Modo Antiquo
Federico Maria Sardelli, conductor

Track List:
Agrippina, HWV 6, Act 3
01. "Io di Roma il Giove sono"
Orlando, HWV 31, Act 1
02. "Lascia Amor"
Siroe, Re di Persia HWV 24, Act 2
03. "Ove son! Che m'avvemme!"
04. "Gelido in ogni vena"
Rodelinda, HWV 19, Act 2
05. "Tirannia gli diede il regno"
Ariodante, HWV 33, Act 2
06."Invida sorte avara"
Ariodante, HWV 33, Act 1
07."Voli colla sua tromba"
Aci, Galatea e Polifemo HWV 72
08.Fra l'ombre e gl'orrori
Rinaldo, HWV 7a, Act 1
09. "Sibilar gli angui d'Aletto"
Ariodante, HWV 33, Act 3
10. "Al sen ti stringo"
Orlando, HWV 31, Act 3
11. "O voi, del mio poter ministri eletti"
12. "Sorge infausta una procella"
Serse, HWV 40, Act 1
13. "Frondi tenere"
14. "Ombra mai fu"
Ezio (or Aetius), HWV 29, Act 3
15. "Già risonar dintorno"
Apollo e Dafne (La terra è liberata)
16. "Mie piante correte"
Giulio Cesare in Egitto, HWV 17, Act 1
17. "Tu sei il cor di questo core"


Exact Audio Copy V1.3 from 2. September 2016

EAC extraction logfile from 1. February 2019, 17:09

Modo Antiquo, Federico Maria Sardelli, Ildebrando D'Arcangelo / Handel, Arie italiane per basso

Used drive : MATSHITADVD-RAM UJ8G6 Adapter: 1 ID: 0

Read mode : Secure
Utilize accurate stream : Yes
Defeat audio cache : Yes
Make use of C2 pointers : No

Read offset correction : 103
Overread into Lead-In and Lead-Out : No
Fill up missing offset samples with silence : Yes
Delete leading and trailing silent blocks : No
Null samples used in CRC calculations : Yes
Used interface : Native Win32 interface for Win NT & 2000

Used output format : User Defined Encoder
Selected bitrate : 1024 kBit/s
Quality : High
Add ID3 tag : No
Command line compressor : C:\Program Files (x86)\Exact Audio Copy\FLAC\FLAC.EXE
Additional command line options : -6 -V -T "ARTIST=%artist%" -T "TITLE=%title%" -T "ALBUM=%albumtitle%" -T "DATE=%year%" -T "TRACKNUMBER=%tracknr%" -T "GENRE=%genre%" -T "COMMENT=%comment%" -T "BAND=%albuminterpret%" -T "ALBUMARTIST=%albuminterpret%" -T "COMPOSER=%composer%" %haslyrics%–tag-from-file=LYRICS="%lyricsfile%"%haslyrics% -T "DISCNUMBER=%cdnumber%" -T "TOTALDISCS=%totalcds%" -T "TOTALTRACKS=%numtracks%" %hascover%–picture="%coverfile%"%hascover% %source% -o %dest%


TOC of the extracted CD

Track | Start | Length | Start sector | End sector
––––––––––––––––––––––––––––-
1 | 0:00.00 | 2:04.50 | 0 | 9349
2 | 2:04.50 | 3:58.37 | 9350 | 27236
3 | 6:03.12 | 0:27.61 | 27237 | 29322
4 | 6:30.73 | 5:08.36 | 29323 | 52458
5 | 11:39.34 | 2:34.21 | 52459 | 64029
6 | 14:13.55 | 5:07.16 | 64030 | 87070
7 | 19:20.71 | 4:07.40 | 87071 | 105635
8 | 23:28.36 | 5:30.18 | 105636 | 130403
9 | 28:58.54 | 4:47.41 | 130404 | 151969
10 | 33:46.20 | 3:39.09 | 151970 | 168403
11 | 37:25.29 | 1:06.03 | 168404 | 173356
12 | 38:31.32 | 3:56.35 | 173357 | 191091
13 | 42:27.67 | 0:37.60 | 191092 | 193926
14 | 43:05.52 | 2:42.61 | 193927 | 206137
15 | 45:48.38 | 5:28.59 | 206138 | 230796
16 | 51:17.22 | 3:07.40 | 230797 | 244861
17 | 54:24.62 | 4:39.06 | 244862 | 265792


Range status and errors

Selected range

Filename F:\RAT\0 - Attente UP\Modo Antiquo, Federico Maria Sardelli, Ildebrando D'Arcangelo - Handel, Arie italiane per basso.wav

Peak level 100.0 %
Extraction speed 2.6 X
Range quality 99.9 %
Test CRC 6C112823
Copy CRC 6C112823
Copy OK

No errors occurred


AccurateRip summary

Track 1 accurately ripped (confidence 15) [94C3B30D] (AR v2)
Track 2 accurately ripped (confidence 14) [68D7FBC6] (AR v2)
Track 3 accurately ripped (confidence 14) [6B56BD52] (AR v2)
Track 4 accurately ripped (confidence 13) [7A5371CD] (AR v2)
Track 5 accurately ripped (confidence 14) [D2859B7E] (AR v2)
Track 6 accurately ripped (confidence 14) [52FFADC2] (AR v2)
Track 7 accurately ripped (confidence 14) [C70C895A] (AR v2)
Track 8 accurately ripped (confidence 14) [E898805D] (AR v2)
Track 9 accurately ripped (confidence 14) [D0190A2A] (AR v2)
Track 10 accurately ripped (confidence 14) [DD39A4B2] (AR v2)
Track 11 accurately ripped (confidence 14) [14BCD6DD] (AR v2)
Track 12 accurately ripped (confidence 14) [A1488467] (AR v2)
Track 13 accurately ripped (confidence 14) [D39500C8] (AR v2)
Track 14 accurately ripped (confidence 14) [878A1303] (AR v2)
Track 15 accurately ripped (confidence 15) [F3DA8168] (AR v2)
Track 16 accurately ripped (confidence 13) [7CF448BC] (AR v2)
Track 17 accurately ripped (confidence 13) [506DAB0B] (AR v2)

All tracks accurately ripped

End of status report

–– CUETools DB Plugin V2.1.6

[CTDB TOCID: W1fkY.eKOPim8tsrn3qr5BfEUtQ-] found
Submit result: W1fkY.eKOPim8tsrn3qr5BfEUtQ- has been confirmed
Track | CTDB Status
1 | (14/14) Accurately ripped
2 | (14/14) Accurately ripped
3 | (14/14) Accurately ripped
4 | (14/14) Accurately ripped
5 | (14/14) Accurately ripped
6 | (14/14) Accurately ripped
7 | (14/14) Accurately ripped
8 | (14/14) Accurately ripped
9 | (14/14) Accurately ripped
10 | (14/14) Accurately ripped
11 | (14/14) Accurately ripped
12 | (14/14) Accurately ripped
13 | (14/14) Accurately ripped
14 | (14/14) Accurately ripped
15 | (14/14) Accurately ripped
16 | (14/14) Accurately ripped
17 | (14/14) Accurately ripped


==== Log checksum 1516C8FDFCE731DF8AC077B73EEF9220DB9F57C71424590E8D93533D78EA13ED ====

Ildebrando D'Arcangelo, Federico Maria Sardelli, Modo Antiquo - Handel: Arie italiene per basso (2009)

Thanks to the original releaser