Subcategories

In-Grid - Lounge Musique (2010)

Posted By: v3122
In-Grid - Lounge Musique (2010)

In-Grid - Lounge Musique (2010)
EAC | Flac(Image) + Cue + Log & MP3 CBR 320Kbps
Soundelux, SDX CD 010/11 | ~ 381 or 120 Mb | Artwork(jpg) -> 193 Mb
House, Jazz-Funk, Italodance

Ingrid Alberini, known by her stage name In-Grid, is an Italian dancer and singer-songwriter. Her 2003 club song "Tu es foutu", in (literal meaning "you're screwed", English title: "You Promised Me"), charted in several European countries, Australia, Latin America and in the United States, where it reached #6 on the Billboard Dance Music/Club Play Singles chart in 2004…

~ wiki
In-Grid - Lounge Musique (2010):

In-Grid - Lounge Musique (2010)

Tracklist:

01. Comment Te Dire Adieu
02. Les Enfants Du Piree
03. Tu Veux Ou Tu Veux Pas
04. Etienne
05. Mais Non Mais Oui
06. C'est Si Bon
07. Alchimie
08. Sympathique
09. Tentacion Al Hombre
10. C'est La Ouate
11. Quiero Vivir
12. Ange Ou Diable
13. L'ete Indien
14. Papillonne Sur Moi (Fab Samperi Remix)

Exact Audio Copy V0.99 prebeta 5 from 4. May 2009

Отчёт EAC об извлечении, выполненном 18. июня 2012, 13:23

In-Grid / Lounge Musique

Дисковод: ASUS DRW-24B1ST Adapter: 1 ID: 0

Режим чтения : Достоверность
Использование точного потока : Да
Отключение кэша аудио : Да
Использование указателей C2 : Нет

Коррекция смещения при чтении : 6
Способность читать области Lead-in и Lead-out : Нет
Заполнение пропущенных сэмплов тишиной : Да
Удаление блоков с тишиной в начале и конце : Нет
При вычислениях CRC использовались нулевые сэмплы : Да
Интерфейс : Встроенный Win32-интерфейс для Win NT/2000

Выходной формат : Внутренние WAV-операции
Формат сэмплов : 44.100 Гц; 16 бит; стерео


TOC извлечённого CD

Трек | Старт | Длительность | Начальный сектор | Конечный сектор
––––––––––––––––––––––––––––––––––-
1 | 0:00.00 | 3:42.67 | 0 | 16716
2 | 3:42.67 | 3:48.52 | 16717 | 33868
3 | 7:31.44 | 2:41.09 | 33869 | 45952
4 | 10:12.53 | 3:39.52 | 45953 | 62429
5 | 13:52.30 | 3:19.10 | 62430 | 77364
6 | 17:11.40 | 3:36.64 | 77365 | 93628
7 | 20:48.29 | 3:39.12 | 93629 | 110065
8 | 24:27.41 | 3:26.53 | 110066 | 125568
9 | 27:54.19 | 3:34.53 | 125569 | 141671
10 | 31:28.72 | 3:16.43 | 141672 | 156414
11 | 34:45.40 | 3:32.05 | 156415 | 172319
12 | 38:17.45 | 3:47.60 | 172320 | 189404
13 | 42:05.30 | 4:22.48 | 189405 | 209102
14 | 46:28.03 | 4:28.16 | 209103 | 229218


Характеристики диапазона извлечения и сообщения об ошибках

Выбранный диапазон

Имя файла C:\Documents and Settings\Polzovatel\Мои документы\Мои рисунки\In-Grid - Lounge Musique.wav

Пиковый уровень 98.8 %
Качество диапазона 100.0 %
CRC теста A5A22F90
CRC копии A5A22F90
Копирование… OK

Ошибок не произошло


AccurateRip: сводка

Трек 1 нет в базе данных
Трек 2 нет в базе данных
Трек 3 нет в базе данных
Трек 4 нет в базе данных
Трек 5 нет в базе данных
Трек 6 нет в базе данных
Трек 7 нет в базе данных
Трек 8 нет в базе данных
Трек 9 нет в базе данных
Трек 10 нет в базе данных
Трек 11 нет в базе данных
Трек 12 нет в базе данных
Трек 13 нет в базе данных
Трек 14 нет в базе данных

Ни одного трека нет в базе AccurateRip

Конец отчёта


[CUETools log; Date: 21.08.2019 4:50:59; Version: 2.1.4]
[AccurateRip ID: 001962f4-010f853b-c20bf00e] disk not present in database.

Track Peak [ CRC32 ] [W/O NULL] [ LOG ]
– 98,8 [A5A22F90] [F13C7697] CRC32
01 98,8 [E61D4A83] [4D6E0305]
02 98,8 [DDFB3104] [ECC29EE3]
03 98,8 [E4A54B29] [7D6AE888]
04 98,8 [842CCDA7] [7EF4960F]
05 98,8 [2CC6A90F] [8D6E2823]
06 98,8 [7C36971C] [8672B7CF]
07 98,8 [DE937759] [F32C6908]
08 98,8 [1999A52F] [A00204E8]
09 98,8 [133970C7] [3BDB88C0]
10 98,8 [F01D8621] [931E3082]
11 98,8 [1918D86B] [EB856704]
12 98,8 [61298DE6] [C9E54D40]
13 98,8 [5C2607C9] [73D29B7A]
14 98,8 [176D0D8B] [39350167]


In-Grid - Lounge Musique (2010)

All thanks go to the original releaser

In-Grid in my Blog

Download In-Grid - Lounge Musique (2010):