Subcategories
Tags
Language
Tags

The Incredible String Band - The Hangman's Beautiful Daughter (1968) [2006 Japan (mini LP) CD]

Posted By: Andi_Deris
The Incredible String Band - The Hangman's Beautiful Daughter (1968) [2006 Japan (mini LP) CD]

The Incredible String Band - The Hangman's Beautiful Daughter (1968) [2006 Japan (mini LP) CD]
EAC Rip | FLAC: Image+Cue+Log | MP3 CBR 320 kbps | Scans
317 Mb | 122 Mb | Time: 49:32
Strange Days Records/Warner Music Japan Inc. | POCE-1034 (WQCP-495)
Folk Rock, Psychedelic

The Hangman's Beautiful Daughter was the third album by The Incredible String Band, released in March 1968. It is regarded by many as a quintessential example of hippie culture, with its promotion of ideas such as communal living, eastern mysticism and rationalistic pantheism.

The album was a major commercial success in the UK, staying in the charts for 27 weeks with a peak of #5. It has sold 800,000 copies in the UK to date. In the U.S., the ISB always remained underground and the album struggled to #161 on the Billboard 200. However, it was nominated for a Grammy in the folk music category.

The Hangman's Beautiful Daughter has been widely acclaimed by many critics. For instance, it was #88 in Joe S. Harrington's Top 100 Albums and was listed by Keenan in The Best Albums Ever…Honest.



The Incredible String Band - The Hangman's Beautiful Daughter (1968) [2006 Japan (mini LP) CD]


Track Listing

01. Koeeoaddi There (4:47)
02. The Minotaur's Song (3:19)
03. Witches Hat (2:34)
04. A Very Cellular Song (13:02)
05. Mercy I Cry City (2:46)
06. Waltz Of The New Moon (5:05)
07. The Water Song (2:54)
08. Three Is A Green Crown (7:43)
09. Swift As The Wind (4:51)
10. Nightfall (2:31)

Produced by Joe Boyd

The Band

• Robin Williamson - vocals, guitar, gimbri, penny whistle, percussion, pan pipe, piano, oud, mandolin, jaw harp, chahanai, water harp, harmonica
• Mike Heron - vocals, sitar, Hammond organ, guitar, hammered dulcimer, harpsichord
• Dolly Collins - flute organ, piano
• David Snell - harp
• Licorice McKechnie - vocals, finger cymbals
• Richard Thompson - vocals on "The Minotaur's Song"
• Judy Dyble - vocals on "The Minotaur's Song"

Exact Audio Copy V1.0 beta 3 from 29. August 2011

EAC extraction logfile from 13. June 2013, 17:08

The Incredible String Band / The Hangman's Beautiful Daughter

Used drive : Optiarc BDRW BD-M100A Adapter: 0 ID: 0

Read mode : Secure
Utilize accurate stream : Yes
Defeat audio cache : Yes
Make use of C2 pointers : No

Read offset correction : 102
Overread into Lead-In and Lead-Out : No
Fill up missing offset samples with silence : Yes
Delete leading and trailing silent blocks : No
Null samples used in CRC calculations : Yes
Used interface : Native Win32 interface for Win NT & 2000

Used output format : User Defined Encoder
Selected bitrate : 128 kBit/s
Quality : High
Add ID3 tag : No
Command line compressor : C:\Program Files (x86)\Exact Audio Copy\Flac\flac.exe
Additional command line options : -V -8 -T "Date=%year%" -T "Genre=%genre%" %source%


TOC of the extracted CD

Track | Start | Length | Start sector | End sector
––––––––––––––––––––––––––––-
1 | 0:00.00 | 4:47.33 | 0 | 21557
2 | 4:47.33 | 3:19.57 | 21558 | 36539
3 | 8:07.15 | 2:34.53 | 36540 | 48142
4 | 10:41.68 | 13:02.61 | 48143 | 106853
5 | 23:44.54 | 2:46.37 | 106854 | 119340
6 | 26:31.16 | 5:05.40 | 119341 | 142255
7 | 31:36.56 | 2:54.04 | 142256 | 155309
8 | 34:30.60 | 7:43.69 | 155310 | 190103
9 | 42:14.54 | 4:51.43 | 190104 | 211971
10 | 47:06.22 | 2:31.03 | 211972 | 223299


Range status and errors

Selected range

Filename C:\Users\Desktop\The I.S.B.-The Hangman`s Beautiful Daughter\The Incredible String Band - The Hangman's Beautiful Daughter.wav

Peak level 100.0 %
Extraction speed 5.1 X
Range quality 100.0 %
Test CRC 95A15C3D
Copy CRC 95A15C3D
Copy OK

No errors occurred

End of status report

==== Log checksum BEE6E03C81EB2578AA29C791649C2346392AA98578A6FD4E767ED6A04C12E063 ====


Many thanks to the original uploader: uta5erika5

SEE also:
The Incredible String Band 196...nion [2006 Japan (mini LP) CD]
The Incredible String Band 1968 Wee Tam [2006 Japan (mini LP) CD]



Password: pass