Subcategories
Tags
Language
Tags

The Incredible String Band - Wee Tam (1968) [2006 Japan (mini LP) CD]

Posted By: Andi_Deris
The Incredible String Band - Wee Tam (1968) [2006 Japan (mini LP) CD]

The Incredible String Band - Wee Tam (1968) [2006 Japan (mini LP) CD]
EAC Rip | FLAC: Image+Cue+Log | MP3 CBR 320 kbps | Scans
268 Mb | 107 Mb | Time: 44:09
Strange Days Records/Warner Music Japan Inc. | POCE-1035 (WQCP-496)
Folk Rock, Psychedelic

Wee Tam and the Big Huge is the fourth album by the Incredible String Band, released in Europe as both a double LP and separate single LPs in November 1968. In the US, however, the two discs were released separately as Wee Tam and The Big Huge.

The album is considered by many to be, along with its predecessor The Hangman's Beautiful Daughter, the best work the band ever produced. Consisting of a very varied selection of songs by Robin Williamson and Mike Heron, with intriguing and poetic lyrics, the album is rich with eclectic and adept instrumentation and arrangements. Around 15 instruments are featured, played mainly by the two band members Williamson and Heron but also, in supporting roles, on a few tracks by Rose Simpson and Licorice McKechnie.



The Incredible String Band - Wee Tam (1968) [2006 Japan (mini LP) CD]


Track Listing

01. Job's Tears (6:48)
02. Puppies (5:24)
03. Beyond The See (2:21)
04. The Yellow Snake (2:09)
05. Log Cabin Home In The Sky (4:04)
06. You Get Brighter (5:49)
07. The Half-Remarkable Question (5:06)
08. Air (3:18)
09. Ducks On A Pond (9:10)

Produced by Joe Boyd

The Band

• Robin Williamson - Bass, Drums, Drums (Bass), Flute, Gimbri, Guitar, Harpsichord, Irish Harp, Kazoo, Liner Notes, Organ, Percussion, Piano, Sarangi, Violin, Vocals, Whisper, Whistle
• Mike Heron - Bass, Guitar, Harmonica, Harpsichord, Organ, Percussion, Sitar, Vocals, Washboard
• Licorice McKechnie - Irish Harp, Percussion, Backing vocals
• Rose Simpson - Violin, Percussion, Backing vocals

Exact Audio Copy V1.0 beta 3 from 29. August 2011

EAC extraction logfile from 11. June 2013, 19:00

The Incredible String Band / Wee Tam

Used drive : Optiarc BDRW BD-M100A Adapter: 0 ID: 0

Read mode : Secure
Utilize accurate stream : Yes
Defeat audio cache : Yes
Make use of C2 pointers : No

Read offset correction : 102
Overread into Lead-In and Lead-Out : No
Fill up missing offset samples with silence : Yes
Delete leading and trailing silent blocks : No
Null samples used in CRC calculations : Yes
Used interface : Native Win32 interface for Win NT & 2000

Used output format : User Defined Encoder
Selected bitrate : 128 kBit/s
Quality : High
Add ID3 tag : No
Command line compressor : C:\Program Files (x86)\Exact Audio Copy\Flac\flac.exe
Additional command line options : -V -8 -T "Date=%year%" -T "Genre=%genre%" %source%


TOC of the extracted CD

Track | Start | Length | Start sector | End sector
––––––––––––––––––––––––––––-
1 | 0:00.00 | 6:48.54 | 0 | 30653
2 | 6:48.54 | 5:24.29 | 30654 | 54982
3 | 12:13.08 | 2:21.07 | 54983 | 65564
4 | 14:34.15 | 2:09.13 | 65565 | 75252
5 | 16:43.28 | 4:04.26 | 75253 | 93578
6 | 20:47.54 | 5:49.28 | 93579 | 119781
7 | 26:37.07 | 5:06.23 | 119782 | 142754
8 | 31:43.30 | 3:18.68 | 142755 | 157672
9 | 35:02.23 | 9:10.37 | 157673 | 198959


Range status and errors

Selected range

Filename C:\Users\Desktop\The I.S.B.-Wee Tam\The Incredible String Band - Wee Tam.wav

Peak level 99.9 %
Extraction speed 4.9 X
Range quality 100.0 %
Test CRC F6BC4DDC
Copy CRC F6BC4DDC
Copy OK

No errors occurred

End of status report

==== Log checksum 37804927778D49CE28B03CF716DFD8D6FB03A45A2D542B7FDFAF250966EB6ADE ====


Many thanks to the original uploader: uta5erika5

SEE also:
The Incredible String Band 196...nion [2006 Japan (mini LP) CD]
The Incredible String Band 196...hter [2006 Japan (mini LP) CD]



Password: pass