Tags
Language
Tags
April 2024
Su Mo Tu We Th Fr Sa
31 1 2 3 4 5 6
7 8 9 10 11 12 13
14 15 16 17 18 19 20
21 22 23 24 25 26 27
28 29 30 1 2 3 4

Irakere - Live In London (1988) {Jazz House}

Posted By: tiburon
Irakere - Live In London (1988) {Jazz House}

Irakere - Live In London (1988) {Jazz House}
EAC 1.0b2 | FLAC tracks level 8 | Cue+Log+M3u | Scans 300dpi | 337MB + 5% Recovery
MP3 CBR 320 Kbps | 137MB + 5% Recovery
Genre: Afro-Cuban Jazz, Fusion

The premiere Cuban music group Irakere has played Ronnie Scott's club in London regularly since 1985. Their Jazz House CD starts out with a throwaway salsa vocal piece, then has two impressive showcases for German Velazco (one apiece on alto and soprano). "Stella By Stalight" (which in Spanish is "Estella Va A Estallar") is swung hard and the closing, nearly 17-minute rendition of Dave Brubeck's "The Duke" has explosive yet lyrical piano playing by Chucho Valdes and some shouting choruses worthy of the Count Basie Orchestra. Overall this is one of Irakere's jazz recordings that is easily recommended.
Track List
1. Bailando Así (Chucho Valdés) - 5:46
2. Johana (Chucho Valdés) - 9:50
3. Estela Va a Estallar (Ned Washington / Victor Young) - 9:29
4. Las Margaritas (Chucho Valdés) - 7:45
5. Lo Que Va a Pasar (Chucho Valdés) - 7:12
6. The Duke (Dave Brubeck) - 16:54

musicians
Carlos Averhoff - Flute, Sax (Tenor)
José Luis Cortés - Flute, Sax (Baritone), Vocals
Carlos del Puerto - Bass, Vocals
Carlos Morales - Guitar
Juan Mungvia - Flugelhorn, Trumpet
Enrique Plá - Drums, Percussion
Chucho Valdés - Composer, Keyboards, Piano
Oscar Valdés - Percussion, Vocals
Jorge Varona - Flugelhorn, Trumpet
Germán Velazco - Flute, Sax (Alto), Sax (Soprano)


Exact Audio Copy V1.0 beta 2 from 29. April 2011

EAC extraction logfile from 17. September 2012, 18:55

Irakere / The Legendary "Irakere" in London

Used drive : SONY DVD RW DW-U18A Adapter: 0 ID: 0

Read mode : Secure
Utilize accurate stream : Yes
Defeat audio cache : Yes
Make use of C2 pointers : No

Read offset correction : 12
Overread into Lead-In and Lead-Out : No
Fill up missing offset samples with silence : Yes
Delete leading and trailing silent blocks : No
Null samples used in CRC calculations : Yes
Used interface : Native Win32 interface for Win NT & 2000
Gap handling : Appended to previous track

Used output format : User Defined Encoder
Selected bitrate : 1024 kBit/s
Quality : High
Add ID3 tag : No
Command line compressor : C:\Program Files\FLAC\flac.exe
Additional command line options : -8 -V -T "ARTIST=%artist%" -T "TITLE=%title%" -T "ALBUM=%albumtitle%" -T "DATE=%year%" -T "TRACKNUMBER=%tracknr%" -T "GENRE=%genre%" -T "PERFORMER=%albuminterpret%" -T "COMPOSER=%composer%" %haslyrics%–tag-from-file=LYRICS


TOC of the extracted CD

Track | Start | Length | Start sector | End sector
––––––––––––––––––––––––––––-
1 | 0:00.33 | 6:21.10 | 33 | 28617
2 | 6:21.43 | 10:10.25 | 28618 | 74392
3 | 16:31.68 | 10:03.45 | 74393 | 119662
4 | 26:35.38 | 7:55.70 | 119663 | 155357
5 | 34:31.33 | 7:22.12 | 155358 | 188519
6 | 41:53.45 | 17:48.20 | 188520 | 268639


Track 1

Filename C:\pastafari\Irakere - The Legendary ''Irakere'' in London (1987) [FLAC]\01 - Bailando así.wav

Pre-gap length 0:00:02.44

Peak level 78.5 %
Extraction speed 9.9 X
Track quality 99.9 %
Test CRC 7F8AC882
Copy CRC 7F8AC882
Track not present in AccurateRip database
Copy OK

Track 2

Filename C:\pastafari\Irakere - The Legendary ''Irakere'' in London (1987) [FLAC]\02 - Johana.wav

Peak level 76.2 %
Extraction speed 13.6 X
Track quality 100.0 %
Test CRC 39E9A8EE
Copy CRC 39E9A8EE
Track not present in AccurateRip database
Copy OK

Track 3

Filename C:\pastafari\Irakere - The Legendary ''Irakere'' in London (1987) [FLAC]\03 - Estela va a estallar (Stella by Starlight).wav

Peak level 72.7 %
Extraction speed 13.9 X
Track quality 99.9 %
Test CRC 88F1AD0C
Copy CRC 88F1AD0C
Track not present in AccurateRip database
Copy OK

Track 4

Filename C:\pastafari\Irakere - The Legendary ''Irakere'' in London (1987) [FLAC]\04 - Las Margaritas.wav

Pre-gap length 0:00:01.50

Peak level 76.1 %
Extraction speed 16.1 X
Track quality 100.0 %
Test CRC AECA61E0
Copy CRC AECA61E0
Track not present in AccurateRip database
Copy OK

Track 5

Filename C:\pastafari\Irakere - The Legendary ''Irakere'' in London (1987) [FLAC]\05 - Lo que va a pasar.wav

Pre-gap length 0:00:03.33

Peak level 76.3 %
Extraction speed 16.9 X
Track quality 100.0 %
Test CRC 56C4B545
Copy CRC 56C4B545
Track not present in AccurateRip database
Copy OK

Track 6

Filename C:\pastafari\Irakere - The Legendary ''Irakere'' in London (1987) [FLAC]\06 - The Duke.wav

Peak level 79.9 %
Extraction speed 16.5 X
Track quality 100.0 %
Test CRC 25578D2D
Copy CRC 25578D2D
Track not present in AccurateRip database
Copy OK


None of the tracks are present in the AccurateRip database

No errors occurred

End of status report

==== Log checksum 1E0D0A41C44CF720FD663DCB2504265211ABEA452288C8ABE53827E1FAD6D91B ====

Irakere - Live In London (1988) {Jazz House}
Irakere - Live In London (1988) {Jazz House}


Thanks to the original ripper