Subcategories
Tags
Language
Tags

Iron Maiden - Live After Death 1985 & The Number Of The Beast 1982 (2000)

Posted By: v3122
Iron Maiden - Live After Death 1985 & The Number Of The Beast 1982 (2000)

Iron Maiden - Live After Death 1985 & The Number Of The Beast 1982 (2000)
EAC | Flac(Image) + Cue + Log & MP3 CBR 320Kbps
2CD | CD-Maximum, CDM 0700-465~6 | ~ 1031 or 342 Mb | Scans(jpg) -> 80 Mb
Heavy Metal | Unofficial Release

Live After Death 1985
Iron Maiden's World Slavery Tour was one of the longest and most extensive tours ever undertaken by a rock band. Lasting from August 9, 1984, to July 5, 1985, and visiting such countries as Poland, Austria, Hungry, Yugoslavia, Italy, France, Spain, Portugal, Scotland, England, Germany, Sweden, Canada, Japan, and the U.S., the show included a mammoth setup that replicated the intricate ancient Egyptian scenery of the Powerslave album cover. As a "thank you" to the hundreds of thousands of fans who packed arenas the world over, the double-disc live set Live After Death was issued in 1985. Disc one is comprised of selections from a four-night stand at L.A.'s Long Beach Arena, with disc two comprised of performances from London's Hammersmith Odeon. The album is essentially a best-of of sorts, since most of their singles released up to this point are featured in all of their high-decibel glory: "Aces High," "2 Minutes to Midnight," "The Trooper," "Flight of Icarus," "The Number of the Beast," "Run to the Hills," and "Running Free." Also included are such strong album tracks as "Wrathchild," "22 Acacia Avenue," "Children of the Damned," "Phantom of the Opera," "Hallowed Be Thy Name," "Iron Maiden," plus their two epics, "Powerslave" and "Rime of the Ancient Mariner," making it a near-complete overview. Live After Death is easily one of heavy metal's best live albums.

The Number Of The Beast 1982
Routinely ranked among the greatest heavy metal albums of all time, The Number of the Beast is the birth of Iron Maiden as we know it, a relentless metal machine lifted to soaring new heights by the arrival of erstwhile Samson frontman Bruce Dickinson. Dickinson's operatic performance here made him an instant metal icon, challenging even Rob Halford for bragging rights, and helped launch the band into the stratosphere. The Number of the Beast topped the charts in the U.K., but even more crucially – with Judas Priest having moved into more commercial territory – it also made Iron Maiden the band of choice for purists who wanted their metal uncompromised. Maiden took the basic blueprint Priest had created in the late '70s – aggressive tempos, twin-guitar interplay, wide-ranging power vocals – and cranked everything up faster and louder. The album's intensity never lets up, the musical technique is peerless for its time, and there isn't a truly unmemorable song in the bunch. Blessed with a singer who could drive home a melody in grandiose fashion, Steve Harris' writing gets more ambitious, largely abandoning the street violence of old in favor of fittingly epic themes drawn from history, science fiction, and horror. The exceptions are "22 Acacia Avenue," a sequel to "Charlotte the Harlot" that sounds written for Di'Anno's range, and the street-crime tale "Gangland," which Harris didn't write; though the punk influences largely left with Di'Anno, these two definitely recall the Maiden of old. As for the new, two of the band's (and, for that matter, heavy metal's) all-time signature songs are here. The anthemic "Run to the Hills" dramatized the conquest of the Native Americans and became the band's first Top Ten U.K. single. It features Maiden's trademark galloping rhythm, which in this case serves to underscore the images of warriors on horseback. Meanwhile, the title track's odd-meter time signature keeps the listener just slightly off balance and unsettled, leading into the most blood-curdling Dickinson scream on record; the lyrics, based on nothing more than Harris' nightmare after watching a horror movie, naturally provoked hysterical accusations of Satan worship (which, in turn, naturally provoked sales). "Hallowed Be Thy Name" is perhaps the most celebrated of the band's extended epics; it's the tale of a prisoner about to be hanged, featuring some of Harris' most philosophical lyrics. It opens with a superbly doomy atmosphere before giving way to a succession of memorable instrumental lines and an impassioned performance by Dickinson; despite all the tempo changes, the transitions never feel jarring. Elsewhere, "The Prisoner" is a catchy retelling of the hit British TV series, and "Children of the Damned" is a slower, heavier number patterned after the downtempo moments of Dio-era Black Sabbath. CD remasters integrate "Total Eclipse," first released as the B-side of "Run to the Hills," into the running order. Though some moments on The Number of the Beast are clearly stronger than others, the album as a whole represented a high-water mark for heavy metal, striking a balance between accessible melodicism and challenging technique and intensity. Everything fell into place for Iron Maiden here at exactly the right time, and the result certainly ranks among the top five most essential heavy metal albums ever recorded. A cornerstone of the genre.

~ allmusic
Iron Maiden - Live After Death 1985 & The Number Of The Beast 1982 (2000):

Iron Maiden - Live After Death 1985 & The Number Of The Beast 1982 (2000)

Tracklist CD1:

Live After Death

01. Intro: Churchill's Speech (00:50)
02. Aces High (04:39)
03. 2 Minutes To Midnight (06:03)
04. The Trooper (04:31)
05. Revelations (06:11)
06. Flight Of Icarus (03:27)
07. Rime Of The Ancient Mariner (13:18)
08. Powerslave (07:12)
09. The Number Of The Beast (04:53)
10. Hallowed Be Thy Name (07:21)
11. Iron Maiden (04:20)
12. Run To The Hills (03:54)
13. Running Free (08:42)

Exact Audio Copy V1.3 from 2. September 2016

Отчёт EAC об извлечении, выполненном 20. апреля 2018, 10:05

Iron Maiden / Live After Death / The Number Of The Beast CD-1

Дисковод: PLEXTOR DVDR PX-712A Adapter: 8 ID: 0

Режим чтения : Достоверность
Использование точного потока : Да
Отключение кэша аудио : Да
Использование указателей C2 : Нет

Коррекция смещения при чтении : 30
Способность читать области Lead-in и Lead-out : Нет
Заполнение пропущенных сэмплов тишиной : Да
Удаление блоков с тишиной в начале и конце : Нет
При вычислениях CRC использовались нулевые сэмплы : Да
Интерфейс : Установленный внешний ASPI-интерфейс

Выходной формат : Пользовательский кодировщик
Выбранный битрейт : 128 kBit/s
Качество : Высокий
Добавление ID3-тега : Нет
Утилита сжатия : C:\Program Files\Exact Audio Copy\FLAC\FLAC.EXE
Дополнительные параметры : -V -8 -T "Genre=%genre%" -T "Artist=%artist%" -T "Title=%title%" -T "Album=%albumtitle%" -T "Date=%year%" -T "Tracknumber=%tracknr%" -T "Comment=%comment%" %source%


TOC извлечённого CD

Трек | Старт | Длительность | Начальный сектор | Конечный сектор
––––––––––––––––––––––––––––––––––-
1 | 0:00.00 | 0:50.36 | 0 | 3785
2 | 0:50.36 | 4:39.69 | 3786 | 24779
3 | 5:30.30 | 6:03.14 | 24780 | 52018
4 | 11:33.44 | 4:31.53 | 52019 | 72396
5 | 16:05.22 | 6:11.27 | 72397 | 100248
6 | 22:16.49 | 3:27.69 | 100249 | 115842
7 | 25:44.43 | 13:18.26 | 115843 | 175718
8 | 39:02.69 | 7:12.66 | 175719 | 208184
9 | 46:15.60 | 4:53.24 | 208185 | 230183
10 | 51:09.09 | 7:21.41 | 230184 | 263299
11 | 58:30.50 | 4:20.65 | 263300 | 282864
12 | 62:51.40 | 3:54.27 | 282865 | 300441
13 | 66:45.67 | 8:42.55 | 300442 | 339646


Характеристики диапазона извлечения и сообщения об ошибках

Выбранный диапазон

Имя файла I:\MOI_RAZDACI\Iron.Maiden_Live.After.Death_ The.Number.Of.The.Beast_2000\Iron.Maiden_Live.After.Death_ The.Number.Of.The.Beast_2000\CD-1\Iron Maiden - Live After Death , The Number Of The Beast CD-1.wav

Пиковый уровень 100.0 %
Скорость извлечения 3.8 X
Качество диапазона 100.0 %
CRC теста 1C4499D0
CRC копии 1C4499D0
Копирование… OK

Ошибок не произошло


AccurateRip: сводка

Трек 1 : извлечено точно (доверие 3) [E33733BF] (AR v2)
Трек 2 : извлечено точно (доверие 3) [6E2BA712] (AR v2)
Трек 3 : извлечено точно (доверие 3) [77E49F53] (AR v2)
Трек 4 : извлечено точно (доверие 3) [3074A87F] (AR v2)
Трек 5 : извлечено точно (доверие 3) [58E3C881] (AR v2)
Трек 6 : извлечено точно (доверие 3) [89905F38] (AR v2)
Трек 7 : извлечено точно (доверие 3) [F43E0173] (AR v2)
Трек 8 : извлечено точно (доверие 3) [2E1BC682] (AR v2)
Трек 9 : извлечено точно (доверие 3) [E5D4550A] (AR v2)
Трек 10 : извлечено точно (доверие 3) [F55F923B] (AR v2)
Трек 11 : извлечено точно (доверие 3) [599620DD] (AR v2)
Трек 12 : извлечено точно (доверие 3) [749833AE] (AR v2)
Трек 13 : извлечено точно (доверие 3) [211E0970] (AR v2)

Все треки извлечены точно

Конец отчёта

–– CUETools DB Plugin V2.1.6

[CTDB TOCID: R_5rKvkIP34qMB_AxJo65gxnpyU-] found
Submit result: R_5rKvkIP34qMB_AxJo65gxnpyU- has been confirmed
Track | CTDB Status
1 | (7/7) Accurately ripped
2 | (7/7) Accurately ripped
3 | (7/7) Accurately ripped
4 | (7/7) Accurately ripped
5 | (7/7) Accurately ripped
6 | (7/7) Accurately ripped
7 | (7/7) Accurately ripped
8 | (7/7) Accurately ripped
9 | (7/7) Accurately ripped
10 | (7/7) Accurately ripped
11 | (7/7) Accurately ripped
12 | (7/7) Accurately ripped
13 | (7/7) Accurately ripped


==== Контрольная сумма отчёта FD20B960B47F898B0E5AEE2752A59EB40EF5E989ED3E9F2C5D996AFA9215D1B3 ====


[CUETools log; Date: 20.04.2018 19:00:48; Version: 2.1.5]
[CTDB TOCID: R_5rKvkIP34qMB_AxJo65gxnpyU-] found.
Track | CTDB Status
1 | (8/8) Accurately ripped
2 | (8/8) Accurately ripped
3 | (8/8) Accurately ripped
4 | (8/8) Accurately ripped
5 | (8/8) Accurately ripped
6 | (8/8) Accurately ripped
7 | (8/8) Accurately ripped
8 | (8/8) Accurately ripped
9 | (8/8) Accurately ripped
10 | (8/8) Accurately ripped
11 | (8/8) Accurately ripped
12 | (8/8) Accurately ripped
13 | (8/8) Accurately ripped
[AccurateRip ID: 00211a48-0158cdf6-b311b00d] found.
Track [ CRC | V2 ] Status
01 [95555823|e33733bf] (2+3/5) Accurately ripped
02 [4f461cf5|6e2ba712] (2+3/5) Accurately ripped
03 [40a5ce81|77e49f53] (2+3/5) Accurately ripped
04 [cea195d9|3074a87f] (2+3/5) Accurately ripped
05 [893b0faf|58e3c881] (2+3/5) Accurately ripped
06 [24c585c5|89905f38] (2+3/5) Accurately ripped
07 [a5ea8b88|f43e0173] (2+3/5) Accurately ripped
08 [abbccff7|2e1bc682] (2+3/5) Accurately ripped
09 [9e60b52d|e5d4550a] (2+3/5) Accurately ripped
10 [dc7486c8|f55f923b] (2+3/5) Accurately ripped
11 [cd2e8725|599620dd] (2+3/5) Accurately ripped
12 [4ea4e125|749833ae] (2+3/5) Accurately ripped
13 [ca14e2f3|211e0970] (2+3/5) Accurately ripped

Track Peak [ CRC32 ] [W/O NULL] [ LOG ]
– 100,0 [1C4499D0] [D1B34766] CRC32
01 54,1 [A532C6FD] [A7AC873C]
02 100,0 [C80E16D9] [03BC5BD1]
03 100,0 [4D0BF427] [A3AC01DE]
04 100,0 [12CDC9AE] [D58BF4E7]
05 100,0 [C857C941] [2906FE87]
06 100,0 [2212A6F0] [E1A7F017]
07 100,0 [F04D8DC1] [14005B34]
08 100,0 [553AC757] [E24E72D1]
09 100,0 [D7D5362B] [6D1F2D85]
10 100,0 [0B269DD9] [0B1AC278]
11 100,0 [911D7152] [412F9514]
12 100,0 [49474F9F] [57B4D9A9]
13 100,0 [93D942D0] [CB385297]


Iron Maiden - Live After Death 1985 & The Number Of The Beast 1982 (2000)

Tracklist CD2:

Live After Death

01-14 Wratchild (03:05)
02-15. 22 Acacia Avenue (06:18)
03-16. Children Of The Damned (04:36)
04-17. Die With Your Boots On (05:12)
05-18. Phantom Of The Opera (07:22)

The Number Of The Beast

06. Invaders (03:22)
07. Children Of The Damned (04:34)
08. The Prisoner (06:01)
09. 22, Acacia Avenue (06:36)
10. The Number Of The Beast (04:50)
11. Run To The Hills (03:52)
12. Gangland (03:48)
13. Hallowed Be Thy Name (07:10)

Exact Audio Copy V1.3 from 2. September 2016

Отчёт EAC об извлечении, выполненном 20. апреля 2018, 10:46

Iron Maiden / Live After Death / The Number Of The Beast CD-2

Дисковод: PLEXTOR DVDR PX-712A Adapter: 8 ID: 0

Режим чтения : Достоверность
Использование точного потока : Да
Отключение кэша аудио : Да
Использование указателей C2 : Нет

Коррекция смещения при чтении : 30
Способность читать области Lead-in и Lead-out : Нет
Заполнение пропущенных сэмплов тишиной : Да
Удаление блоков с тишиной в начале и конце : Нет
При вычислениях CRC использовались нулевые сэмплы : Да
Интерфейс : Установленный внешний ASPI-интерфейс

Выходной формат : Пользовательский кодировщик
Выбранный битрейт : 128 kBit/s
Качество : Высокий
Добавление ID3-тега : Нет
Утилита сжатия : C:\Program Files\Exact Audio Copy\FLAC\FLAC.EXE
Дополнительные параметры : -V -8 -T "Genre=%genre%" -T "Artist=%artist%" -T "Title=%title%" -T "Album=%albumtitle%" -T "Date=%year%" -T "Tracknumber=%tracknr%" -T "Comment=%comment%" %source%


TOC извлечённого CD

Трек | Старт | Длительность | Начальный сектор | Конечный сектор
––––––––––––––––––––––––––––––––––-
1 | 0:00.00 | 3:05.73 | 0 | 13947
2 | 3:05.73 | 6:18.19 | 13948 | 42316
3 | 9:24.17 | 4:36.16 | 42317 | 63032
4 | 14:00.33 | 5:12.31 | 63033 | 86463
5 | 19:12.64 | 7:22.66 | 86464 | 119679
6 | 26:35.55 | 3:22.61 | 119680 | 134890
7 | 29:58.41 | 4:34.59 | 134891 | 155499
8 | 34:33.25 | 6:01.64 | 155500 | 182638
9 | 40:35.14 | 6:36.17 | 182639 | 212355
10 | 47:11.31 | 4:50.05 | 212356 | 234110
11 | 52:01.36 | 3:52.67 | 234111 | 251577
12 | 55:54.28 | 3:48.68 | 251578 | 268745
13 | 59:43.21 | 7:10.40 | 268746 | 301035


Характеристики диапазона извлечения и сообщения об ошибках

Выбранный диапазон

Имя файла I:\MOI_RAZDACI\Iron.Maiden_Live.After.Death_ The.Number.Of.The.Beast_2000\Iron.Maiden_Live.After.Death_ The.Number.Of.The.Beast_2000\CD-2\Iron Maiden - Live After Death , The Number Of The Beast CD-2.wav

Пиковый уровень 100.0 %
Скорость извлечения 3.8 X
Качество диапазона 100.0 %
CRC теста 96A6EF10
CRC копии 96A6EF10
Копирование… OK

Ошибок не произошло


AccurateRip: сводка

Трек 1 : извлечено точно (доверие 3) [37188748] (AR v2)
Трек 2 : извлечено точно (доверие 3) [9407FB0F] (AR v2)
Трек 3 : извлечено точно (доверие 3) [7B97B58D] (AR v2)
Трек 4 : извлечено точно (доверие 3) [9F0B6D46] (AR v2)
Трек 5 : извлечено точно (доверие 3) [2A68035D] (AR v2)
Трек 6 : извлечено точно (доверие 3) [EA4329EA] (AR v2)
Трек 7 : извлечено точно (доверие 3) [C79A65E4] (AR v2)
Трек 8 : извлечено точно (доверие 3) [234A5D43] (AR v2)
Трек 9 : извлечено точно (доверие 3) [DBCC6D00] (AR v2)
Трек 10 : извлечено точно (доверие 3) [C67F45BD] (AR v2)
Трек 11 : извлечено точно (доверие 3) [07E726B1] (AR v2)
Трек 12 : извлечено точно (доверие 3) [C914AD3E] (AR v2)
Трек 13 : извлечено точно (доверие 2) [3EE83C6C] (AR v2)

Все треки извлечены точно

Конец отчёта

–– CUETools DB Plugin V2.1.6

[CTDB TOCID: QqcDPpXsQzU7VyN0jd8gAibXFDs-] found
Submit result: QqcDPpXsQzU7VyN0jd8gAibXFDs- has been confirmed
Track | CTDB Status
1 | (6/6) Accurately ripped
2 | (6/6) Accurately ripped
3 | (6/6) Accurately ripped
4 | (6/6) Accurately ripped
5 | (6/6) Accurately ripped
6 | (6/6) Accurately ripped
7 | (6/6) Accurately ripped
8 | (6/6) Accurately ripped
9 | (6/6) Accurately ripped
10 | (6/6) Accurately ripped
11 | (6/6) Accurately ripped
12 | (6/6) Accurately ripped
13 | (6/6) Accurately ripped


==== Контрольная сумма отчёта 153FFC1F7D0E453948AC21930716618031F4E203E5BC97066EAC6A7D3AEEFCB3 ====


[CUETools log; Date: 20.04.2018 19:01:17; Version: 2.1.5]
[CTDB TOCID: QqcDPpXsQzU7VyN0jd8gAibXFDs-] found.
Track | CTDB Status
1 | (7/7) Accurately ripped
2 | (7/7) Accurately ripped
3 | (7/7) Accurately ripped
4 | (7/7) Accurately ripped
5 | (7/7) Accurately ripped
6 | (7/7) Accurately ripped
7 | (7/7) Accurately ripped
8 | (7/7) Accurately ripped
9 | (7/7) Accurately ripped
10 | (7/7) Accurately ripped
11 | (7/7) Accurately ripped
12 | (7/7) Accurately ripped
13 | (7/7) Accurately ripped
[AccurateRip ID: 001f877b-013d9db7-b80fad0d] found.
Track [ CRC | V2 ] Status
01 [1b6fb856|37188748] (2+3/5) Accurately ripped
02 [5e95506b|9407fb0f] (2+3/5) Accurately ripped
03 [36bbf73c|7b97b58d] (2+3/5) Accurately ripped
04 [c506409d|9f0b6d46] (2+3/5) Accurately ripped
05 [9b7bb0a8|2a68035d] (2+3/5) Accurately ripped
06 [5291b4a3|ea4329ea] (3+3/6) Accurately ripped
07 [b16e91f2|c79a65e4] (3+3/6) Accurately ripped
08 [0dac42f8|234a5d43] (3+3/6) Accurately ripped
09 [5d4d24ff|dbcc6d00] (3+3/6) Accurately ripped
10 [ec1ac679|c67f45bd] (3+3/6) Accurately ripped
11 [d2f1210d|07e726b1] (3+3/6) Accurately ripped
12 [46c3eeeb|c914ad3e] (3+3/6) Accurately ripped
13 [e46a3c7b|3ee83c6c] (4+2/6) Accurately ripped

Track Peak [ CRC32 ] [W/O NULL] [ LOG ]
– 100,0 [96A6EF10] [24ED6C86] CRC32
01 100,0 [9FAEF0FE] [75D91A5F]
02 100,0 [46883E8F] [E49F4E78]
03 100,0 [FB17D3E4] [5A418AC5]
04 100,0 [F9DBA63C] [32D6D2E2]
05 100,0 [2829DB33] [433629D6]
06 87,3 [EFBB10FF] [68D3ABA2]
07 99,6 [EA3E2C53] [D1F30CC9]
08 93,6 [2723BDC2] [DFF8DC87]
09 84,8 [48DB0D7E] [1D7F7AA7]
10 99,5 [B26A6251] [F1BA7F78]
11 97,3 [616A92AD] [C97F5764]
12 92,6 [26BBF7A9] [E8F1129E]
13 86,8 [28265846] [FB2E4559]


Iron Maiden - Live After Death 1985 & The Number Of The Beast 1982 (2000)

All thanks go to the original releaser

Iron Maiden or Iron Maiden in my Blog

Download Iron Maiden - Live After Death 1985 & The Number Of The Beast 1982 (2000):