Subcategories

Israel Philharmonic Orchestra, Kurt Masur - Mendelssohn: Elias (1993)

Posted By: tirexiss
Israel Philharmonic Orchestra, Kurt Masur - Mendelssohn: Elias (1993)

Israel Philharmonic Orchestra, Kurt Masur - Mendelssohn: Elias (1993)
EAC | FLAC (image+.cue, log) | Covers Included | 01:49:17 | 527 MB
Genre: Classical | Label: Teldec | Catalog: 73131

Mendelssohn's Elijah is a work that definitely stands among the ranks of phenomenal oratorios. This is a tremendous performance where the chorus and conductor seem to have achieved an ideal rapport with the Israel Philharmonic. This recording presents a wonderfully fresh, dramatic exposition of an old favorite that makes it sound new-minted.
It's lithe, lean and classically mean. It propels itself along at quite a lick - sometimes considerably faster than Mendelssohn's often surprisingly slow metronome marks. Pauses between movements are kept to a bare minimum, so that the momentum is not lost…Masur's generally speedy traversal is however not an unmixed blessing.

Israel Philharmonic Orchestra, Kurt Masur - Mendelssohn: Elias (1993)

Track List:

CD 1:
01. Einleitung "So wahr der Herr, der Gott Israels lebet [0:00:46.07]
02. Ouvertüre [0:03:28.50]
03. Elijah (Elias), oratorio, Op. 70- Part 1. No. 1. Chor "Hilf, Herr!" [0:03:02.30]
04. Elijah (Elias), oratorio, Op. 70- Part 1. No. 2. Duett im Chor "Herr, höre unser Gebet" [0:01:53.48]
05. Elijah (Elias), oratorio, Op. 70- Part 1. No. 3. Rezitativ "Zerreißet eure Herzen" [0:00:35.02]
06. Elijah (Elias), oratorio, Op. 70- Part 1. No. 4. Arie "So ihr mich von ganzem Herzen suchet" [0:01:57.20]
07. Elijah (Elias), oratorio, Op. 70- Part 1. No. 5. Chor "Aber der Herr sieht es nicht" [0:03:18.63]
08. Elijah (Elias), oratorio, Op. 70- Part 1. No. 6. Rezitativ "Elias, gehe weg von hinnen" [0:00:34.12]
09. Elijah (Elias), oratorio, Op. 70- Part 1. No. 7. Doppelquartett "Denn er hat seinen Engeln befohlen" [0:02:39.35]
10. Elijah (Elias), oratorio, Op. 70- Part 1. Rezitativ "Nun auch der Bach vertrocknet ist" [0:00:55.73]
11. Elijah (Elias), oratorio, Op. 70- Part 1. No. 8. Rezitativ, Arie und Duett "Was hast du an mir getan" [0:05:31.22]
12. Elijah (Elias), oratorio, Op. 70- Part 1. No. 9. Chor "Wohl dem, der den Herrn fürchtet" [0:02:56.40]
13. Elijah (Elias), oratorio, Op. 70- Part 1. No. 10. Rezitativ mit Chor "So wahr der Herr Zebaoth lebet" [0:03:16.03]
14. Elijah (Elias), oratorio, Op. 70- Part 1. No. 11. Chor "Baal, erhöre uns!" [0:02:58.72]
15. Elijah (Elias), oratorio, Op. 70- Part 1. No. 12. Rezitativ mit Chor "Rufet lauter!" [0:00:50.33]
16. Elijah (Elias), oratorio, Op. 70- Part 1. No. 13. Rezitativ mit Chor "Rufet lauter! Er hört euch nicht" [0:01:47.00]
17. Elijah (Elias), oratorio, Op. 70- Part 1. "Kommt her, alles Volk" - No. 14. Arie "Herr Gott Abrahams" [0:02:39.55]
18. Elijah (Elias), oratorio, Op. 70- Part 1. No. 15. Quartett "Wirf dein Anliegen auf den Herrn" [0:01:10.35
19. Elijah (Elias), oratorio, Op. 70- Part 1. No. 16. Rezitativ mit Chor "Der du deine Diener machst zu Geistern" [0:02:25.12]
20. Elijah (Elias), oratorio, Op. 70- Part 1. No. 17. Arie "Ist nicht des Herrn Wort wie ein Feuer" [0:01:56.05]
21. Elijah (Elias), oratorio, Op. 70- Part 1. No. 18. Arioso "Weh ihnen, daß sie von mir weichen!" [0:01:42.58
22. Elijah (Elias), oratorio, Op. 70- Part 1. No. 19. Rezitativ mit Chor "Hilf deinem Volk, du Mann Gottes!" [0:04:28.07]
23. Elijah (Elias), oratorio, Op. 70- Part 1. No. 20. Chor "Dank sei dir Gott" [0:03:30.35]

CD 2:
01. Elijah (Elias), oratorio, Op. 70- Part 2. No. 21. Arie 'Höre, Israel, höre des Herrn Stimme' [0:02:33.02]
02. Elijah (Elias), oratorio, Op. 70- Part 2. So spricht der Herr…Ich bin eur Troster [0:02:45.68]
03. Elijah (Elias), oratorio, Op. 70- Part 2. No. 22. Chor 'Fürchte dich nicht, spricht unser Gott' [0:03:59.22]
04. Elijah (Elias), oratorio, Op. 70- Part 2. No. 23. Rezitativ mit Chor 'Der Herr hat Dich erhoben' [0:02:48.73]
05. Elijah (Elias), oratorio, Op. 70- Part 2. No. 24. Chor 'Wehe ihm, er muß sterben' [0:01:29.37]
06. Elijah (Elias), oratorio, Op. 70- Part 2. No. 25. Rezitativ 'Du Mann Gottes' [0:01:43.60]
07. Elijah (Elias), oratorio, Op. 70- Part 2. No. 26. Arie 'Es ist genug!' [0:04:13.05]
08. Elijah (Elias), oratorio, Op. 70- Part 2. No. 27. Rezitativ 'Siehe, er schläft' [0:00:28.68]
09. Elijah (Elias), oratorio, Op. 70- Part 2. No. 28. Terzett 'Hebe Deine Augen auf zu den Bergen' [0:01:32.20]
10. Elijah (Elias), oratorio, Op. 70- Part 2. No. 29. Chor 'Siehe, der Hüter Israels' [0:03:16.45]
11. Elijah (Elias), oratorio, Op. 70- Part 2. No. 30. Rezitativ 'Stehe auf, Elias' [0:01:21.20]
12. Elijah (Elias), oratorio, Op. 70- Part 2. No. 31. Arie 'Sei stille dem Herrn' [0:02:31.00]
13. Elijah (Elias), oratorio, Op. 70- Part 2. No. 32. Chor 'Wer bis an das Ende beharrt' [0:02:09.05]
14. Elijah (Elias), oratorio, Op. 70- Part 2. No. 33. Rezitativ 'Herr, es wird Nacht um mich' [0:01:20.55]
15. Elijah (Elias), oratorio, Op. 70- Part 2. No. 34. Chor 'Der Herr ging vorüber' [0:03:27.57]
16. Elijah (Elias), oratorio, Op. 70- Part 2. No. 35. Rezitativ 'Seraphim standen über ihm' [0:00:10.18]
17. Elijah (Elias), oratorio, Op. 70- Part 2. Quartett mit Chor 'Heilig ist Gott der Herr' [0:02:02.50]
18. Elijah (Elias), oratorio, Op. 70- Part 2. No. 36. Chor Rezitativ 'Gehe wiederum hinab!' [0:01:05.10]
19. Elijah (Elias), oratorio, Op. 70- Part 2. No. 37. Arioso 'Ja, es sollen wohl Berge weichen' [0:01:50.67]
20. Elijah (Elias), oratorio, Op. 70- Part 2. No. 38. Chor 'Und der Prophet Elias brach hervor' [0:02:32.13]
21. Elijah (Elias), oratorio, Op. 70- Part 2. No. 39. Arie 'Dann werden die Gerechten leuchten' [0:02:16.72]
22. Elijah (Elias), oratorio, Op. 70- Part 2. No. 40. Rezitativ 'Darum ward gesendet der Prophet Elias' [0:00:59.55]
23. Elijah (Elias), oratorio, Op. 70- Part 2. No. 41. Chor 'Aber einer erwacht von Mitternacht' [0:03:05.68]
24. Elijah (Elias), oratorio, Op. 70- Part 2. Quartett 'Wohlan, alle, die ihr durstig seid' [0:02:45.47]
25. Elijah (Elias), oratorio, Op. 70- Part 2. No. 42. Chor 'Alsdann wird euer Licht hervorbrechen' [0:02:44.68]

Performers:
Alastair Miles - bass
Helen Donath - soprano
Jard van Nes - contralto
Donald George - tenor
Kerstin Klein - soprano
MDR-Chor
Israel Philharmonic Orchestra
Kurt Masur - conductor

Exact Audio Copy V1.0 beta 3 from 29. August 2011

EAC extraction logfile from 19. May 2013, 19:11

Kurt Masur / Mendelssohn - Elias - Masur (Disc 1)

Used drive : TSSTcorpCDDVDW SH-222BB Adapter: 2 ID: 1

Read mode : Secure
Utilize accurate stream : Yes
Defeat audio cache : Yes
Make use of C2 pointers : No

Read offset correction : 6
Overread into Lead-In and Lead-Out : No
Fill up missing offset samples with silence : Yes
Delete leading and trailing silent blocks : No
Null samples used in CRC calculations : Yes
Used interface : Native Win32 interface for Win NT & 2000

Used output format : User Defined Encoder
Selected bitrate : 1024 kBit/s
Quality : High
Add ID3 tag : No
Command line compressor : C:\Program Files\Exact Audio Copy\Flac\flac.exe
Additional command line options : -8 -V -T "TITLE=%title%" -T "ARTIST=%artist%" -T "ALBUMARTIST=%albumartist%" -T "ALBUM=%albumtitle%" -T "DATE=%year%" -T "TRACKNUMBER=%tracknr%" -T "TRACKTOTAL=%numtracks%" -T "GENRE=%genre%" -T "COMMENT=%comment%" -T "PERFORMER=%albuminterpret%" -T "COMPOSER=%composer%" %source% -o %dest%


TOC of the extracted CD

Track | Start | Length | Start sector | End sector
––––––––––––––––––––––––––––-
1 | 0:00.00 | 0:46.07 | 0 | 3456
2 | 0:46.07 | 3:28.50 | 3457 | 19106
3 | 4:14.57 | 3:02.30 | 19107 | 32786
4 | 7:17.12 | 1:53.48 | 32787 | 41309
5 | 9:10.60 | 0:35.02 | 41310 | 43936
6 | 9:45.62 | 1:57.20 | 43937 | 52731
7 | 11:43.07 | 3:18.63 | 52732 | 67644
8 | 15:01.70 | 0:34.12 | 67645 | 70206
9 | 15:36.07 | 2:39.35 | 70207 | 82166
10 | 18:15.42 | 0:55.73 | 82167 | 86364
11 | 19:11.40 | 5:31.22 | 86365 | 111211
12 | 24:42.62 | 2:56.40 | 111212 | 124451
13 | 27:39.27 | 3:16.03 | 124452 | 139154
14 | 30:55.30 | 2:58.72 | 139155 | 152576
15 | 33:54.27 | 0:50.33 | 152577 | 156359
16 | 34:44.60 | 1:47.00 | 156360 | 164384
17 | 36:31.60 | 2:39.55 | 164385 | 176364
18 | 39:11.40 | 1:10.35 | 176365 | 181649
19 | 40:22.00 | 2:25.12 | 181650 | 192536
20 | 42:47.12 | 1:56.05 | 192537 | 201241
21 | 44:43.17 | 1:42.58 | 201242 | 208949
22 | 46:26.00 | 4:28.07 | 208950 | 229056
23 | 50:54.07 | 3:30.35 | 229057 | 244841


Range status and errors

Selected range

Filename G:\Ripped general\[2107] Mendelssohn – Elias – Masur\cd1\Mendelssohn - Elias - Masur (Disc 1).wav

Peak level 88.5 %
Extraction speed 6.8 X
Range quality 99.9 %
Test CRC D53C862B
Copy CRC D53C862B
Copy OK

No errors occurred


AccurateRip summary

Track 1 accurately ripped (confidence 10) [B4295B33] (AR v1)
Track 2 accurately ripped (confidence 10) [4DA2AA21] (AR v1)
Track 3 accurately ripped (confidence 9) [C20C8822] (AR v1)
Track 4 accurately ripped (confidence 10) [6BEF58A6] (AR v1)
Track 5 accurately ripped (confidence 10) [B18B8EC5] (AR v1)
Track 6 accurately ripped (confidence 10) [39AECEF8] (AR v1)
Track 7 accurately ripped (confidence 9) [2D0ECA6D] (AR v1)
Track 8 accurately ripped (confidence 10) [0D6BF5F2] (AR v1)
Track 9 accurately ripped (confidence 10) [200D910F] (AR v1)
Track 10 accurately ripped (confidence 10) [0C5D8A22] (AR v1)
Track 11 accurately ripped (confidence 9) [11714058] (AR v1)
Track 12 accurately ripped (confidence 10) [B55BAECE] (AR v1)
Track 13 accurately ripped (confidence 10) [208F1B1E] (AR v1)
Track 14 accurately ripped (confidence 10) [065F0A17] (AR v1)
Track 15 accurately ripped (confidence 10) [8A5D69FC] (AR v1)
Track 16 accurately ripped (confidence 10) [F6EFECED] (AR v1)
Track 17 accurately ripped (confidence 10) [8287C5EB] (AR v1)
Track 18 accurately ripped (confidence 10) [E2653426] (AR v1)
Track 19 accurately ripped (confidence 10) [8858B4D2] (AR v1)
Track 20 accurately ripped (confidence 10) [C8A61B0D] (AR v1)
Track 21 accurately ripped (confidence 10) [AEB372D8] (AR v1)
Track 22 accurately ripped (confidence 9) [3B1BD0A9] (AR v1)
Track 23 accurately ripped (confidence 10) [3AED3ED9] (AR v1)

All tracks accurately ripped

End of status report

Exact Audio Copy V1.0 beta 3 from 29. August 2011

EAC extraction logfile from 19. May 2013, 17:02

Kurt Masur / Mendelssohn - Elias - Masur (Disc 2)

Used drive : TSSTcorpCDDVDW SH-222BB Adapter: 2 ID: 1

Read mode : Secure
Utilize accurate stream : Yes
Defeat audio cache : Yes
Make use of C2 pointers : No

Read offset correction : 6
Overread into Lead-In and Lead-Out : No
Fill up missing offset samples with silence : Yes
Delete leading and trailing silent blocks : No
Null samples used in CRC calculations : Yes
Used interface : Native Win32 interface for Win NT & 2000

Used output format : User Defined Encoder
Selected bitrate : 1024 kBit/s
Quality : High
Add ID3 tag : No
Command line compressor : C:\Program Files\Exact Audio Copy\Flac\flac.exe
Additional command line options : -8 -V -T "TITLE=%title%" -T "ARTIST=%artist%" -T "ALBUMARTIST=%albumartist%" -T "ALBUM=%albumtitle%" -T "DATE=%year%" -T "TRACKNUMBER=%tracknr%" -T "TRACKTOTAL=%numtracks%" -T "GENRE=%genre%" -T "COMMENT=%comment%" -T "PERFORMER=%albuminterpret%" -T "COMPOSER=%composer%" %source% -o %dest%


TOC of the extracted CD

Track | Start | Length | Start sector | End sector
––––––––––––––––––––––––––––-
1 | 0:00.00 | 2:33.02 | 0 | 11476
2 | 2:33.02 | 2:45.68 | 11477 | 23919
3 | 5:18.70 | 3:59.22 | 23920 | 41866
4 | 9:18.17 | 2:48.73 | 41867 | 54539
5 | 12:07.15 | 1:29.37 | 54540 | 61251
6 | 13:36.52 | 1:43.60 | 61252 | 69036
7 | 15:20.37 | 4:13.05 | 69037 | 88016
8 | 19:33.42 | 0:28.68 | 88017 | 90184
9 | 20:02.35 | 1:32.20 | 90185 | 97104
10 | 21:34.55 | 3:16.45 | 97105 | 111849
11 | 24:51.25 | 1:21.20 | 111850 | 117944
12 | 26:12.45 | 2:31.00 | 117945 | 129269
13 | 28:43.45 | 2:09.05 | 129270 | 138949
14 | 30:52.50 | 1:20.55 | 138950 | 145004
15 | 32:13.30 | 3:27.57 | 145005 | 160586
16 | 35:41.12 | 0:10.18 | 160587 | 161354
17 | 35:51.30 | 2:02.50 | 161355 | 170554
18 | 37:54.05 | 1:05.10 | 170555 | 175439
19 | 38:59.15 | 1:50.67 | 175440 | 183756
20 | 40:50.07 | 2:32.13 | 183757 | 195169
21 | 43:22.20 | 2:16.72 | 195170 | 205441
22 | 45:39.17 | 0:59.55 | 205442 | 209921
23 | 46:38.72 | 3:05.68 | 209922 | 223864
24 | 49:44.65 | 2:45.47 | 223865 | 236286
25 | 52:30.37 | 2:44.68 | 236287 | 248654


Range status and errors

Selected range

Filename G:\Ripped general\[2107] Mendelssohn – Elias – Masur\cd2\Mendelssohn - Elias - Masur (Disc 2).wav

Peak level 92.3 %
Extraction speed 7.0 X
Range quality 100.0 %
Test CRC 23122196
Copy CRC 23122196
Copy OK

No errors occurred


AccurateRip summary

Track 1 accurately ripped (confidence 9) [CFA42912] (AR v1)
Track 2 accurately ripped (confidence 9) [B6B1A93F] (AR v1)
Track 3 accurately ripped (confidence 8) [383C6915] (AR v1)
Track 4 accurately ripped (confidence 9) [6C544E50] (AR v1)
Track 5 accurately ripped (confidence 9) [8E3BA975] (AR v1)
Track 6 accurately ripped (confidence 9) [9555862D] (AR v1)
Track 7 accurately ripped (confidence 8) [9881D5F5] (AR v1)
Track 8 accurately ripped (confidence 9) [E7D33436] (AR v1)
Track 9 accurately ripped (confidence 9) [8FA5CBAA] (AR v1)
Track 10 accurately ripped (confidence 9) [5FC0B21E] (AR v1)
Track 11 accurately ripped (confidence 9) [8EDE0333] (AR v1)
Track 12 accurately ripped (confidence 9) [ED308A4E] (AR v1)
Track 13 accurately ripped (confidence 8) [3D18FDE3] (AR v1)
Track 14 accurately ripped (confidence 9) [B1AA5CEE] (AR v1)
Track 15 accurately ripped (confidence 8) [252A4A15] (AR v1)
Track 16 accurately ripped (confidence 9) [32CC867D] (AR v1)
Track 17 accurately ripped (confidence 9) [F967E07B] (AR v1)
Track 18 accurately ripped (confidence 8) [55D8FB20] (AR v1)
Track 19 accurately ripped (confidence 8) [937B2D53] (AR v1)
Track 20 accurately ripped (confidence 9) [F9BD56A8] (AR v1)
Track 21 accurately ripped (confidence 9) [F05032C2] (AR v1)
Track 22 accurately ripped (confidence 9) [862C64AD] (AR v1)
Track 23 accurately ripped (confidence 9) [BF8B4513] (AR v1)
Track 24 accurately ripped (confidence 9) [F197EBD5] (AR v1)
Track 25 accurately ripped (confidence 9) [33B2743F] (AR v1)

All tracks accurately ripped

End of status report

Thanks to the Original ripper (unknown)!

Welcome to my blog!

Download: