Subcategories

Ivo Pogorelich - Johann Sebastian Bach: English Suites 2 & 3; Domenico Scarlatti: 4 Sonatas (1996)

Posted By: Designol
Ivo Pogorelich - Johann Sebastian Bach: English Suites 2 & 3; Domenico Scarlatti: 4 Sonatas (1996)

Ivo Pogorelich - J.S. Bach: Englische Suiten 2 & 3; D. Scarlatti: 4 Sonaten (1996)
EAC | FLAC | Image (Cue&Log) ~ 285 Mb (incl 5%) | Mp3 (CBR320) ~ 188 Mb (incl 5%) | Scans included
Genre: Classical | Label: Deutsche Grammophon | # 445 573-2 | Time: 01:15:31

While Ivo Pogorelich established his reputation performing mainly Romantic repertoire, his few forays into the Baroque reveal him to be an equally engaging- if not eccentric musician here as well. In quicker movements, such as the opening Preludes of the English Suites for instance Pogorelich's rhythmic control and contrapuntal clarity are simply amazing. Slower movements likewise are handled with remarkable intensity and delicacy. Pogorelich's performances of four Scarlatti sonatas concluding the program as well are wonderfully animated and knowing.

The clarity and lineality of these two English Suites by Bach, recorded in October 1985, superficially remind the listener of the manner of Glenn Gould, but the young Pogorelich’s tone is much warmer, his touch less percussive and his ornamentations more discreet. The beauty of these recording is such that it makes one regret all the more that his career stalled before being curtailed apparently for good.

I very much enjoy both Perahia and Feltsman in these suites but both are decidedly more classically "correct" and restrained than Pogorelich's more poetic and rhapsodic style. His technical prowess may be taken for granted: the fluidity of his runs, the wonderful balance between the hands - no irritating leading fractionally ahead of the beat with the left or undue prominence for the melody on the right - his gradation of dynamics - no Band-Aided fingers banging for effect - the graceful rhythmic flexibility which constantly reminds us that this music had its roots in dance. The subtlety and gentleness of his touch on the keys in the more meditative movements such as the Sarabandes are astonishing; he seems to caress the keys.

The Scarlatti, recorded six years later in a slightly harsher, closer acoustic, has not quite the serenity or liquidity of the Bach recital and that suits the perkier, more martial nature of tK.380 and 450 - although the pianist softens his touch to play the Andante K.87 so tenderly that the more clangourous acoustic enhances the mood permitting an aureola of sound to surround the music. The sheer, infectious joyfulness of the concluding K.135 Allegro provides the perfect culmination to a breathtaking disc. Although some may have legitimate doubts about his suitability to Mozart, it remains remarkable that Pogorelich was equally at home in Baroque composers, as per here, as he was in Chopin, Tchaikovsky and Ravel.

Review by Ralph Moore

Ivo Pogorelich - Johann Sebastian Bach: English Suites 2 & 3; Domenico Scarlatti: 4 Sonatas (1996)



Ivo Pogorelich - Johann Sebastian Bach: English Suites 2 & 3; Domenico Scarlatti: 4 Sonatas (1996)



Ivo Pogorelich - Johann Sebastian Bach: English Suites 2 & 3; Domenico Scarlatti: 4 Sonatas (1996)



Tracklist:

Johann Sebastian Bach (1685-1750)

English Suite No. 2 in A minor
01. I. Prelude (06:39)
02. II. Allemande (04:09)
03. III. Courante (01:45)
04. IV. Sarabande (07:52)
05. V. Bourree I & II (05:19)
06. VI. Gigue (03:02)

English Suite No.3 in G minor
07. I. Prelude (05:13)
08. II. Allemande (04:34)
09. III. Courante (02:53)
10. IV. Sarabande (07:52)
11. V. Gavotte I & II (04:31)
12. VI. Gigue (02:32)

Giuseppe Domenico Scarlatti (1685-1757)

13. Sonata in E major, K. 380 (04:59)
14. Sonata in B minor, K. 87 (06:20)
15. Sonata in G minor, K. 450 (03:31)
16. Sonata in E major, K. 135 (04:16)


Exact Audio Copy V1.0 beta 3 from 29. August 2011

Отчёт EAC об извлечении, выполненном 28. мая 2015, 18:44

Ivo Pogorelich / Bach - English Suites, Scarlatti - Sonatas

Дисковод: Optiarc DVD RW AD-7260S Adapter: 0 ID: 1

Режим чтения : Достоверность
Использование точного потока : Да
Отключение кэша аудио : Да
Использование указателей C2 : Нет

Коррекция смещения при чтении : 48
Способность читать области Lead-in и Lead-out : Нет
Заполнение пропущенных сэмплов тишиной : Да
Удаление блоков с тишиной в начале и конце : Нет
При вычислениях CRC использовались нулевые сэмплы : Да
Интерфейс : Встроенный Win32-интерфейс для Win NT/2000

Выходной формат : Пользовательский кодировщик
Выбранный битрейт : 896 kBit/s
Качество : Высокий
Добавление ID3-тега : Нет
Утилита сжатия : C:\Program Files\FLAC Frontend\tools\flac.exe
Дополнительные параметры : -V -8 -T "Date=%year%" -T "Genre=%genre%" %source%


TOC извлечённого CD

Трек | Старт | Длительность | Начальный сектор | Конечный сектор
––––––––––––––––––––––––––––––––––-
1 | 0:00.32 | 6:39.00 | 32 | 29956
2 | 6:39.32 | 4:09.50 | 29957 | 48681
3 | 10:49.07 | 1:45.25 | 48682 | 56581
4 | 12:34.32 | 7:52.60 | 56582 | 92041
5 | 20:27.17 | 5:19.08 | 92042 | 115974
6 | 25:46.25 | 3:02.07 | 115975 | 129631
7 | 28:48.32 | 5:13.50 | 129632 | 153156
8 | 34:02.07 | 4:34.00 | 153157 | 173706
9 | 38:36.07 | 2:53.00 | 173707 | 186681
10 | 41:29.07 | 7:52.00 | 186682 | 222081
11 | 49:21.07 | 4:31.00 | 222082 | 242406
12 | 53:52.07 | 2:32.25 | 242407 | 253831
13 | 56:24.32 | 4:59.00 | 253832 | 276256
14 | 61:23.32 | 6:20.50 | 276257 | 304806
15 | 67:44.07 | 3:31.50 | 304807 | 320681
16 | 71:15.57 | 4:16.50 | 320682 | 339931


Характеристики диапазона извлечения и сообщения об ошибках

Выбранный диапазон

Имя файла D:\EAC\Мои раздачи\Bach - Englische Suiten 2 & 3, Scarlatti - 4 Sonaten - Pogorelich\Ivo Pogorelich - Bach - English Suites, Scarlatti - Sonatas.wav

Пиковый уровень 99.9 %
Скорость извлечения 4.5 X
Качество диапазона 100.0 %
CRC теста 97AC6557
CRC копии 97AC6557
Копирование… OK

Ошибок не произошло


AccurateRip: сводка

Трек 1 : извлечено точно (доверие 12) [503C3EEF] (AR v2)
Трек 2 : извлечено точно (доверие 12) [4AC77871] (AR v2)
Трек 3 : извлечено точно (доверие 12) [F47876D5] (AR v2)
Трек 4 : извлечено точно (доверие 12) [280BD0A1] (AR v2)
Трек 5 : извлечено точно (доверие 12) [3A9CB0EE] (AR v2)
Трек 6 : извлечено точно (доверие 12) [9E2A5F60] (AR v2)
Трек 7 : извлечено точно (доверие 12) [E0CF241B] (AR v2)
Трек 8 : извлечено точно (доверие 12) [64D232FF] (AR v2)
Трек 9 : извлечено точно (доверие 12) [66A8653C] (AR v2)
Трек 10 : извлечено точно (доверие 12) [E9E694D3] (AR v2)
Трек 11 : извлечено точно (доверие 12) [BE476B73] (AR v2)
Трек 12 : извлечено точно (доверие 12) [CC835965] (AR v2)
Трек 13 : извлечено точно (доверие 12) [12716CA1] (AR v2)
Трек 14 : извлечено точно (доверие 12) [F1B3BFB4] (AR v2)
Трек 15 : извлечено точно (доверие 12) [1BCA80B8] (AR v2)
Трек 16 : извлечено точно (доверие 12) [FB76A08E] (AR v2)

Все треки извлечены точно

Конец отчёта

==== Контрольная сумма отчёта BA0EBBBEF358DBCC5B996D50CB8431E9BFCCC2798B4E51F97A66DD7D14C270B1 ====

foobar2000 1.2 / Dynamic Range Meter 1.1.1
log date: 2016-09-14 21:54:35

––––––––––––––––––––––––––––––––––––––––
Analyzed: Ivo Pogorelich / Bach - English Suites, Scarlatti - Sonatas
––––––––––––––––––––––––––––––––––––––––

DR Peak RMS Duration Track
––––––––––––––––––––––––––––––––––––––––
DR13 0.00 dB -16.96 dB 6:39 01-English Suite No. 2 in A minor - I. Prelude
DR13 -5.30 dB -22.49 dB 4:10 02-II. Allemande
DR13 -0.06 dB -16.89 dB 1:45 03-III. Courante
DR15 -3.25 dB -23.88 dB 7:53 04-IV. Sarabande
DR13 -2.00 dB -20.67 dB 5:19 05-V. Bourree I & II
DR11 -1.70 dB -17.60 dB 3:02 06-VI. Gigue
DR14 -0.10 dB -16.95 dB 5:14 07-English Suite No.3 in G minor - I. Prelude
DR13 -7.67 dB -25.39 dB 4:34 08-II. Allemande
DR13 -2.52 dB -20.89 dB 2:53 09-III. Courante
DR14 -0.76 dB -19.94 dB 7:52 10-IV. Sarabande
DR14 -6.25 dB -24.67 dB 4:31 11-V. Gavotte I & II
DR13 -1.77 dB -17.89 dB 2:32 12-VI. Gigue
DR13 -0.88 dB -18.78 dB 4:59 13-Scarlatti - Sonata in E major, K. 380
DR14 -8.16 dB -26.22 dB 6:21 14-Scarlatti - Sonata in B minor, K. 87
DR13 -1.48 dB -18.69 dB 3:32 15-Scarlatti - Sonata in G minor, K. 450
DR13 -1.40 dB -19.62 dB 4:17 16-Scarlatti - Sonata in E major, K. 135
––––––––––––––––––––––––––––––––––––––––

Number of tracks: 16
Official DR value: DR13

Samplerate: 44100 Hz
Channels: 2
Bits per sample: 16
Bitrate: 491 kbps
Codec: FLAC
================================================================================

Ivo Pogorelich - Johann Sebastian Bach: English Suites 2 & 3; Domenico Scarlatti: 4 Sonatas (1996)

All thanks to original releaser - Святогop Иванoвич

More Scarlatti music in My Blog

More J.S. Bach music in My Blog