Subcategories
Tags
Language
Tags

John Williams - Empire Of The Sun (Original Motion Picture Soundtrack) (1987) {Warner Bros.} **[RE-UP]**

Posted By: TestTickles
John Williams - Empire Of The Sun (Original Motion Picture Soundtrack) (1987) {Warner Bros.} **[RE-UP]**

John Williams - Empire Of The Sun (Original Motion Picture Soundtrack) (1987) {Warner Bros.}
EAC Rip | FLAC with CUE and log | scans | 238 mb
MP3 CBR 320kbps | RAR | 126 mb
Genre: soundtrack

Empire Of The Sun is the 1987 soundtrack by John Williams. The album is complimented by beginning with a song performed by The Ambrosian Junior Choir. This is the original single CD in its original mastered version released by Warner Bros. Records.
John Williams is a genius, he has been composing scores since the sixties and still he hasn't run out of inspiration. Every well known movie tune is his. In 1987 Steven Spielberg made a masterpiece: Empire of the Sun. But this movie is heavenly/heavily carried by a divine score. If you just listen to "Cadillac of the Skies" you hear John Williams reaching heaven. To back up my opinion I say one thing more: "Cadillac of the Skies" will be played at my funeral…

John Williams - Empire Of The Sun (Original Motion Picture Soundtrack) (1987) {Warner Bros.} **[RE-UP]**

01. Suo Gan
Performed by The Ambrosian Junior Choir
Directed by John McCarthy
Soloist: James Rainbird


02. Cadillac Of The Skies
03. Jim's New Life
04. Lost In The Crowd
05. Imaginary Air Battle
06. The Return To The City
07. Liberation- Exsultate Justi
08. The British Grenadiers (Traditional)
09. Toy Planes, Home and Hearth (Chopin Mazurka Opus 17 No. 4)
10. The Streets Of Shanghai
11. The Pheasant Hunt
12. No Road Home, Seeing the Bomb
13. Exsultate Justi
–-
Music composed and conducted by John Williams
Produced by John Williams
Music editor: Ken Wannberg
Recording engineer: Shawn Murphy
Album remixed by Armin Steiner

EAC extraction logfile from 20. November 2006, 15:27 for CD
John Williams / Empire Of The Sun (Original Motion Picture Soundtrack)

Used drive : LITE-ON DVDRW SOHW-1633S Adapter: 0 ID: 0
Read mode : Secure with NO C2, accurate stream, disable cache
Read offset correction : 12
Overread into Lead-In and Lead-Out : No

Used output format : Internal WAV Routines
44.100 Hz; 16 Bit; Stereo

Other options :
Fill up missing offset samples with silence : Yes
Delete leading and trailing silent blocks : No
Installed external ASPI interface


Track 1
Filename D:\FLAC\John Williams - Empire Of The Sun (Original Motion Picture Soundtrack) (1987) [FLAC] {Warner Bros.}\01 - The Ambrosian Junior Choir - Suo Gan.wav

Pre-gap length 0:00:02.42

Peak level 68.4 %
Track quality 100.0 %
Test CRC 3C82D26F
Copy CRC 3C82D26F
Copy OK

Track 2
Filename D:\FLAC\John Williams - Empire Of The Sun (Original Motion Picture Soundtrack) (1987) [FLAC] {Warner Bros.}\02 - Cadillac Of The Skies.wav

Pre-gap length 0:00:02.96

Peak level 94.4 %
Track quality 99.9 %
Test CRC E7D92AFE
Copy CRC E7D92AFE
Copy OK

Track 3
Filename D:\FLAC\John Williams - Empire Of The Sun (Original Motion Picture Soundtrack) (1987) [FLAC] {Warner Bros.}\03 - Jim's New Life.wav

Pre-gap length 0:00:00.96

Peak level 70.5 %
Track quality 100.0 %
Test CRC 3E5CA4F9
Copy CRC 3E5CA4F9
Copy OK

Track 4
Filename D:\FLAC\John Williams - Empire Of The Sun (Original Motion Picture Soundtrack) (1987) [FLAC] {Warner Bros.}\04 - Lost In The Crowd.wav

Pre-gap length 0:00:01.20

Peak level 95.7 %
Track quality 100.0 %
Test CRC 50F7C4F1
Copy CRC 50F7C4F1
Copy OK

Track 5
Filename D:\FLAC\John Williams - Empire Of The Sun (Original Motion Picture Soundtrack) (1987) [FLAC] {Warner Bros.}\05 - Imaginary Air Battle.wav

Pre-gap length 0:00:02.16

Peak level 78.3 %
Track quality 99.9 %
Test CRC 668CB89D
Copy CRC 668CB89D
Copy OK

Track 6
Filename D:\FLAC\John Williams - Empire Of The Sun (Original Motion Picture Soundtrack) (1987) [FLAC] {Warner Bros.}\06 - The Return To The City.wav

Pre-gap length 0:00:01.22

Peak level 30.8 %
Track quality 100.0 %
Test CRC B8A2EAAC
Copy CRC B8A2EAAC
Copy OK

Track 7
Filename D:\FLAC\John Williams - Empire Of The Sun (Original Motion Picture Soundtrack) (1987) [FLAC] {Warner Bros.}\07 - Liberation- Exsultate Justi.wav

Pre-gap length 0:00:01.37

Peak level 74.2 %
Track quality 100.0 %
Test CRC 110247A7
Copy CRC 110247A7
Copy OK

Track 8
Filename D:\FLAC\John Williams - Empire Of The Sun (Original Motion Picture Soundtrack) (1987) [FLAC] {Warner Bros.}\08 - The British Grenadiers (Traditional).wav

Pre-gap length 0:00:03.46

Peak level 52.0 %
Track quality 100.0 %
Test CRC 9FC89C3C
Copy CRC 9FC89C3C
Copy OK

Track 9
Filename D:\FLAC\John Williams - Empire Of The Sun (Original Motion Picture Soundtrack) (1987) [FLAC] {Warner Bros.}\09 - Toy Planes, Home and Hearth (Chopin Mazurka Opus 17 No. 4).wav

Pre-gap length 0:00:00.86

Peak level 52.7 %
Track quality 99.9 %
Test CRC 98D8E882
Copy CRC 98D8E882
Copy OK

Track 10
Filename D:\FLAC\John Williams - Empire Of The Sun (Original Motion Picture Soundtrack) (1987) [FLAC] {Warner Bros.}\10 - The Streets Of Shanghai.wav

Pre-gap length 0:00:01.44

Peak level 86.6 %
Track quality 100.0 %
Test CRC 6F86D14A
Copy CRC 6F86D14A
Copy OK

Track 11
Filename D:\FLAC\John Williams - Empire Of The Sun (Original Motion Picture Soundtrack) (1987) [FLAC] {Warner Bros.}\11 - The Pheasant Hunt.wav

Pre-gap length 0:00:01.26

Peak level 81.6 %
Track quality 100.0 %
Test CRC DBE8465D
Copy CRC DBE8465D
Copy OK

Track 12
Filename D:\FLAC\John Williams - Empire Of The Sun (Original Motion Picture Soundtrack) (1987) [FLAC] {Warner Bros.}\12 - No Road Home, Seeing the Bomb.wav

Pre-gap length 0:00:01.13

Peak level 60.6 %
Track quality 100.0 %
Test CRC 0D2392CE
Copy CRC 0D2392CE
Copy OK

Track 13
Filename D:\FLAC\John Williams - Empire Of The Sun (Original Motion Picture Soundtrack) (1987) [FLAC] {Warner Bros.}\13 - Exsultate Justi.wav

Pre-gap length 0:00:02.80

Peak level 98.6 %
Track quality 100.0 %
Test CRC B579271A
Copy CRC B579271A
Copy OK

No errors occured


End of status report


John Williams - Empire Of The Sun (Original Motion Picture Soundtrack) (1987) {Warner Bros.} **[RE-UP]**