Subcategories
Tags
Language
Tags

James Brown - Get On The Good Foot (1972) {1993 Polydor} **[RE-UP]**

Posted By: TestTickles
James Brown - Get On The Good Foot (1972) {1993 Polydor} **[RE-UP]**

James Brown - Get On The Good Foot (1972) {1993 Polydor}
EAC Rip | FLAC with CUE and log | scans | 456 mb
MP3 CBR 320kbps | RAR | 178 mb
Genre: R&B, soul, funk

Get On The Good Food is the 1972 double album by James Brown. Released in the month of October, the album featured the hit "Get On The Good Foot" plus updated versions of "Cold Sweat", "Lost Someone", "Please, Please, Please", and "Ain't It A Groove". This CD was released in 1993.
Trying to collect James Brown today is probably like a kid running into a candy store with loose change in his pocket. One can only imagine what it was like to have experienced his output in real time, where he not only released singles, but albums, and also participated in the projects of his proteges.

According to the liner notes by Harry Weinger, this is considered to be a "transition record". James Brown had now become a major label act after being with King Records for years. In two years he released four albums, and Get On The Good Foot was his first to be done with a major label budget. Not only that, but this was a double album. It features a mixture of brand new songs, along with new renditions of "Cold Sweat", "Lost Someone", "Ain't It A Groove", and "Please, Please, Please". JB was a workaholic throughout this era of his career, right up to and including the post-1974 disco era.

Most of the songs on this were recorded in 1972 when James Brown found himself bringing in some of the best musicians around, including Bernard "Pretty" Purdie, Joe Farrell, Hugh McCracken, Jon Faddis, Randy Brecker, Michael Brecker, Gordon Edwards, and Joe Beck, literally a who's who of jazz and funk from the 1970's. A few of the songs do have the old Famous Flames stand-by's, including a then-unused take from the Bootsy-era band. Despite the differences in the band lineup for each song, Get On The Good Foot is very solid, and again a "transition record" bridging the old and the new, towards what JB would be doing for the next few years.

James Brown - Get On The Good Foot (1972) {1993 Polydor} **[RE-UP]**

01. Get On The Good Foot (Parts 1 & 2)
02. The Whole World Needs Liberation
03. Your Love Was Good To Me
04. Cold Sweat
05. Recitation By Hank Ballard
06. I Got A Bag Of My Own
07. Nothing Beats A Try But A Fail
08. Lost Someone
09. Funky Side Of Town
10. Please, Please, Please
11. Ain't It A Groove
12. My Part, Make It Funky (Parts 3 & 4)
13. Dirty Harri
14. I Know It's True

–-
Produced by James Brown
Mixing and production supervision by Bob Roth
Digitally remastered by Gary Mayo at PolyGram Studios

EAC extraction logfile from 10. August 2006, 21:06 for CD
James Brown / Get On The Good Foot

Used drive : LITE-ON DVDRW SOHW-1633S Adapter: 0 ID: 0
Read mode : Secure with NO C2, accurate stream, disable cache
Read offset correction : 12
Overread into Lead-In and Lead-Out : No

Used output format : Internal WAV Routines
44.100 Hz; 16 Bit; Stereo

Other options :
Fill up missing offset samples with silence : Yes
Delete leading and trailing silent blocks : No
Installed external ASPI interface


Track 1
Filename D:\FLAC\James Brown - Get On The Good Foot (1972) [FLAC] {1993 Polydor}\01 - Get On The Good Foot (Parts 1 & 2).wav

Pre-gap length 0:00:02.00

Peak level 100.0 %
Track quality 99.9 %
Test CRC C41B9E1F
Copy CRC C41B9E1F
Copy OK

Track 2
Filename D:\FLAC\James Brown - Get On The Good Foot (1972) [FLAC] {1993 Polydor}\02 - The Whole World Needs Liberation.wav

Peak level 98.4 %
Track quality 100.0 %
Test CRC 71A9AAE2
Copy CRC 71A9AAE2
Copy OK

Track 3
Filename D:\FLAC\James Brown - Get On The Good Foot (1972) [FLAC] {1993 Polydor}\03 - Your Love Was Good To Me.wav

Peak level 100.0 %
Track quality 100.0 %
Test CRC 42DBD8CD
Copy CRC 42DBD8CD
Copy OK

Track 4
Filename D:\FLAC\James Brown - Get On The Good Foot (1972) [FLAC] {1993 Polydor}\04 - Cold Sweat.wav

Peak level 100.0 %
Track quality 99.9 %
Test CRC B9374EBD
Copy CRC B9374EBD
Copy OK

Track 5
Filename D:\FLAC\James Brown - Get On The Good Foot (1972) [FLAC] {1993 Polydor}\05 - Recitation By Hank Ballard.wav

Pre-gap length 0:00:02.84

Peak level 100.0 %
Track quality 100.0 %
Test CRC 51115E8B
Copy CRC 51115E8B
Copy OK

Track 6
Filename D:\FLAC\James Brown - Get On The Good Foot (1972) [FLAC] {1993 Polydor}\06 - I Got A Bag Of My Own.wav

Peak level 89.9 %
Track quality 100.0 %
Test CRC A12E852B
Copy CRC A12E852B
Copy OK

Track 7
Filename D:\FLAC\James Brown - Get On The Good Foot (1972) [FLAC] {1993 Polydor}\07 - Nothing Beats A Try But A Fail.wav

Peak level 85.6 %
Track quality 100.0 %
Test CRC 92E0C412
Copy CRC 92E0C412
Copy OK

Track 8
Filename D:\FLAC\James Brown - Get On The Good Foot (1972) [FLAC] {1993 Polydor}\08 - Lost Someone.wav

Peak level 100.0 %
Track quality 100.0 %
Test CRC 87322BF9
Copy CRC 87322BF9
Copy OK

Track 9
Filename D:\FLAC\James Brown - Get On The Good Foot (1972) [FLAC] {1993 Polydor}\09 - Funky Side Of Town.wav

Pre-gap length 0:00:02.84

Peak level 100.0 %
Track quality 100.0 %
Test CRC 2796B4E0
Copy CRC 2796B4E0
Copy OK

Track 10
Filename D:\FLAC\James Brown - Get On The Good Foot (1972) [FLAC] {1993 Polydor}\10 - Please, Please, Please.wav

Peak level 100.0 %
Track quality 100.0 %
Test CRC 6360E83C
Copy CRC 6360E83C
Copy OK

Track 11
Filename D:\FLAC\James Brown - Get On The Good Foot (1972) [FLAC] {1993 Polydor}\11 - Ain't It A Groove.wav

Pre-gap length 0:00:02.82

Peak level 97.2 %
Track quality 100.0 %
Test CRC 45A1DE50
Copy CRC 45A1DE50
Copy OK

Track 12
Filename D:\FLAC\James Brown - Get On The Good Foot (1972) [FLAC] {1993 Polydor}\12 - My Part, Make It Funky (Parts 3 & 4).wav

Peak level 100.0 %
Track quality 100.0 %
Test CRC 1CC094C3
Copy CRC 1CC094C3
Copy OK

Track 13
Filename D:\FLAC\James Brown - Get On The Good Foot (1972) [FLAC] {1993 Polydor}\13 - Dirty Harri.wav

Peak level 94.1 %
Track quality 99.9 %
Test CRC F88C156D
Copy CRC F88C156D
Copy OK

Track 14
Filename D:\FLAC\James Brown - Get On The Good Foot (1972) [FLAC] {1993 Polydor}\14 - I Know It's True.wav

Pre-gap length 0:00:02.84

Peak level 91.4 %
Track quality 100.0 %
Test CRC B3F4E48C
Copy CRC B3F4E48C
Copy OK

No errors occured


End of status report


James Brown - Get On The Good Foot (1972) {1993 Polydor} **[RE-UP]**