Subcategories

Jana Winderen - Energy Field (2010) {Touch}

Posted By: TestTickles
Jana Winderen - Energy Field (2010) {Touch}

Jana Winderen - Energy Field (2010) {Touch}
EAC Rip | FLAC with CUE and LOG | scans | 238 mb
MP3 CBR 320 kbps | RAR | 113 mb
Genre: electronic, experimental, field recordings

Energy Field is the 2010 CD by London-based artist Jana Winderen. This was released through the wonderful folks at Touch.

Jana Winderen - Energy Field (2010) {Touch}

1. Aquaculture (18:00)
2. Isolation/Measurement (12:11)
3. Sense Of Latent Power (20:04)

Composed by Jana Winderen
Recordings made in the Barents Sea, Greenland and Norway using four DPA hydrophones & 4060s, a Telinga parabolic reflector and a Sound Devices 744T
Mastered by Denis Blackham at Skye

Exact Audio Copy V1.0 beta 3 from 29. August 2011

EAC extraction logfile from 30. March 2013, 4:00

Jana Winderen / Energy Field

Used drive : hp DVD RW AD-7586H Adapter: 0 ID: 1

Read mode : Secure
Utilize accurate stream : Yes
Defeat audio cache : Yes
Make use of C2 pointers : No

Read offset correction : 6
Overread into Lead-In and Lead-Out : No
Fill up missing offset samples with silence : Yes
Delete leading and trailing silent blocks : No
Null samples used in CRC calculations : Yes
Used interface : Native Win32 interface for Win NT & 2000
Gap handling : Appended to previous track

Used output format : User Defined Encoder
Selected bitrate : 1024 kBit/s
Quality : High
Add ID3 tag : No
Command line compressor : C:\Program Files (x86)\Exact Audio Copy\FLAC\FLAC.EXE
Additional command line options : -8 -V -T "ARTIST=%artist%" -T "TITLE=%title%" -T "ALBUM=%albumtitle%" -T "DATE=%year%" -T "TRACKNUMBER=%tracknr%" -T "GENRE=%genre%" -T "COMMENT=%comment%" -T "BAND=%albuminterpret%" -T "ALBUMARTIST=%albuminterpret%" -T "COMPOSER=%composer%" %haslyrics%–tag-from-file=LYRICS="%lyricsfile%"%haslyrics% -T "DISCNUMBER=%cdnumber%" -T "TOTALDISCS=%totalcds%" -T "TOTALTRACKS=%numtracks%" %hascover%–picture="%coverfile%"%hascover% %source% -o %dest%


TOC of the extracted CD

Track | Start | Length | Start sector | End sector
––––––––––––––––––––––––––––-
1 | 0:00.00 | 17:51.62 | 0 | 80386
2 | 17:51.62 | 12:14.45 | 80387 | 135481
3 | 30:06.32 | 20:10.43 | 135482 | 226274


Track 1

Filename C:\cuntfist\FLAC\Jana Winderen - Energy Field (2010) [FLAC] {Touch}\01 - Aquaculture.wav

Pre-gap length 0:00:02.00

Peak level 98.6 %
Extraction speed 3.5 X
Track quality 100.0 %
Test CRC A57C10CA
Copy CRC A57C10CA
Accurately ripped (confidence 2) [8CE0A005] (AR v1)
Copy OK

Track 2

Filename C:\cuntfist\FLAC\Jana Winderen - Energy Field (2010) [FLAC] {Touch}\02 - Isolation, Measurement.wav

Pre-gap length 0:00:00.86

Peak level 98.6 %
Extraction speed 4.1 X
Track quality 99.9 %
Test CRC 360780DC
Copy CRC 360780DC
Accurately ripped (confidence 2) [DE869D7D] (AR v1)
Copy OK

Track 3

Filename C:\cuntfist\FLAC\Jana Winderen - Energy Field (2010) [FLAC] {Touch}\03 - Sense Of Latent Power.wav

Peak level 98.6 %
Extraction speed 5.2 X
Track quality 100.0 %
Test CRC 3B51F76C
Copy CRC 3B51F76C
Accurately ripped (confidence 2) [93BD6BB7] (AR v1)
Copy OK


All tracks accurately ripped

No errors occurred

End of status report

–– CUETools DB Plugin V2.1.3

[CTDB TOCID: 5Ue.3dcDu6Nkc8VLVHiFACw4LX8-] found, Submit result: 5Ue.3dcDu6Nkc8VLVHiFACw4LX8- has been confirmed
[7f2c7747] (2/2) Accurately ripped


==== Log checksum 5ECEADCB420DC6774FC979C8C59D86005E83F51750A0191122F77799999FBEDF ====


Jana Winderen - Energy Field (2010) {Touch}


Thank you to the original uploader.