Subcategories
Please register here if you want to download anything!

If domain in your address bar is different from the list below
PLEASE LEAVE THAT SITE IMMEDIATELY
❗IT'S A DANGEROUS FAKE❗



Spicy Magazines for Men! ;-)

Julian Schnabel - Every Silver Lining Has A Cloud (1995) **[RE-UP]**

Posted By: TestTickles
Julian Schnabel - Every Silver Lining Has A Cloud (1995) **[RE-UP]**

Julian Schnabel - Every Silver Lining Has A Cloud (1995)
EAC Rip | FLAC with CUE and log | scans | 415 mb
MP3 CBR 320kbps | RAR | 178 mb
Genre: alternative, country rock, Americana, rock

Every Silver Lining Has A Cloud is a 1995 CD by Julian Schnabel. Despite the shape of the object on the cover, it is not that of a penis. Allegedly. This was Schnabel's first and only album. It was produced by Bill Laswell, with people like guitarist Buckethead and actor Gary Oldman making appearances. This came out on Island.
Coming from a painter who likes to work on a heroic scale, Julian Schnabel's debut pop album, Every Silver Lining Has a Cloud (Island), is remarkably self-effacing. With a thin wavering voice that cracks on the high notes, Mr. Schnabel sounds like a lost little urban cowboy, awash in self-pity.

The songs, which Mr. Schnabel wrote with several collaborators, are the morose reflections of a world traveler who finds himself at loose ends after being abandoned by a lover. "I don't know what I'm going to do without you," he moans in "When I Was Young." "Loneliness surrounds me/ Without your arms around me," he declares in "Apartment No. 9." The title song bids "goodbye to every friend I knew."

Among the album's gallery of romantic losers, the most vivid character is Juan Belmonte, an aging bullfighter with a girlfriend half his age, who hangs himself because "he wished he could be something else, anybody but himself."

Although the album's melodies meander, the songs are atmospherically set by Bill Laswell (the co-producer, with Mr. Schnabel), and several have a pronounced Spanish flavor. The watery-sounding guitar and keyboard textures accentuate the lyrics' pained vulnerability. It is that vulnerability, the sense of an artist unguardedly (and often artlessly) pouring out his heart, that is the album's most appealing quality.

Julian Schnabel - Every Silver Lining Has A Cloud (1995) **[RE-UP]**

01. She's Dancing, He's Dreaming
02. I Tried
03. The Night We Met
04. If You Leave, Don't Come Back
05. Every Silver Lining Has A Cloud
06. When I Was Young
07. Juan Belmonte
08. Gary's Song
09. Immigration Song
10. Carey Come Back
11. I Want To Take You Home
12. It's Great To Be Nine
13. Apartment #9
–-
Julian Schnabel-vocals

Anton Fier-drums
Bill Laswell-bass
Nicky Skopelitis-rhythm guitar
Carey Burtt-guitar
Buckethead-guitar
Bernie Worrell-organ, piano
Bernard Fowler-backing vocals
Michelle Kinney-cello
Electra Stewart-violin
Brandon Ross-soprano guitar
Gary Oldman-voice, piano
Ted Daniel-flugelhorn
Michael Wincott-harmonica
Brian Kelly-guitar
Barkisu-vocal

Produced by Bill Laswell and Julian Schnabel
Recorded at Greenpoint Studio, Brooklyn, NY and Kampo Studio, NY 1993
Engineers: Oz Fritz and Robert Musso
Assitant: Imad Mansour
Mixed at Kampo Studio, NY
Engineering: Oz Fritz for High Velocity
Assistant: Rich Kosti
Mastered by Howie Weinberg at Masterdisk

EAC extraction logfile from 20. November 2006, 11:50 for CD
Julian Schnabel / Every Silver Lining Has A Cloud

Used drive : LITE-ON DVDRW SOHW-1633S Adapter: 0 ID: 0
Read mode : Secure with NO C2, accurate stream, disable cache
Read offset correction : 12
Overread into Lead-In and Lead-Out : No

Used output format : Internal WAV Routines
44.100 Hz; 16 Bit; Stereo

Other options :
Fill up missing offset samples with silence : Yes
Delete leading and trailing silent blocks : No
Installed external ASPI interface


Track 1
Filename D:\FLAC\Julian Schnabel - Every Silver Lining Has A Cloud (1995) [FLAC]\01 - She's Dancing, He's Dreaming.wav

Pre-gap length 0:00:02.42

Peak level 93.7 %
Track quality 100.0 %
Test CRC 69F1E6BB
Copy CRC 69F1E6BB
Copy OK

Track 2
Filename D:\FLAC\Julian Schnabel - Every Silver Lining Has A Cloud (1995) [FLAC]\02 - I Tried.wav

Pre-gap length 0:00:00.44

Peak level 97.7 %
Track quality 100.0 %
Test CRC 4ADB3841
Copy CRC 4ADB3841
Copy OK

Track 3
Filename D:\FLAC\Julian Schnabel - Every Silver Lining Has A Cloud (1995) [FLAC]\03 - The Night We Met.wav

Pre-gap length 0:00:00.73

Peak level 97.7 %
Track quality 100.0 %
Test CRC F0035A5C
Copy CRC F0035A5C
Copy OK

Track 4
Filename D:\FLAC\Julian Schnabel - Every Silver Lining Has A Cloud (1995) [FLAC]\04 - If You Leave, Don't Come Back.wav

Pre-gap length 0:00:00.09

Peak level 97.7 %
Track quality 100.0 %
Test CRC E7663583
Copy CRC E7663583
Copy OK

Track 5
Filename D:\FLAC\Julian Schnabel - Every Silver Lining Has A Cloud (1995) [FLAC]\05 - Every Silver Lining Has A Cloud.wav

Pre-gap length 0:00:00.60

Peak level 97.7 %
Track quality 100.0 %
Test CRC FBCADA20
Copy CRC FBCADA20
Copy OK

Track 6
Filename D:\FLAC\Julian Schnabel - Every Silver Lining Has A Cloud (1995) [FLAC]\06 - When I Was Young.wav

Pre-gap length 0:00:01.69

Peak level 82.0 %
Track quality 100.0 %
Test CRC 726B6E0D
Copy CRC 726B6E0D
Copy OK

Track 7
Filename D:\FLAC\Julian Schnabel - Every Silver Lining Has A Cloud (1995) [FLAC]\07 - Juan Belmonte.wav

Pre-gap length 0:00:00.37

Peak level 97.7 %
Track quality 100.0 %
Test CRC 6F039232
Copy CRC 6F039232
Copy OK

Track 8
Filename D:\FLAC\Julian Schnabel - Every Silver Lining Has A Cloud (1995) [FLAC]\08 - Gary's Song.wav

Peak level 97.7 %
Track quality 100.0 %
Test CRC 222993C1
Copy CRC 222993C1
Copy OK

Track 9
Filename D:\FLAC\Julian Schnabel - Every Silver Lining Has A Cloud (1995) [FLAC]\09 - Immigration Song.wav

Pre-gap length 0:00:00.82

Peak level 97.7 %
Track quality 100.0 %
Test CRC 4EA8D0AE
Copy CRC 4EA8D0AE
Copy OK

Track 10
Filename D:\FLAC\Julian Schnabel - Every Silver Lining Has A Cloud (1995) [FLAC]\10 - Carey Come Back.wav

Pre-gap length 0:00:01.36

Peak level 97.7 %
Track quality 100.0 %
Test CRC 199AA1F8
Copy CRC 199AA1F8
Copy OK

Track 11
Filename D:\FLAC\Julian Schnabel - Every Silver Lining Has A Cloud (1995) [FLAC]\11 - I Want To Take You Home.wav

Pre-gap length 0:00:00.42

Peak level 97.7 %
Track quality 100.0 %
Test CRC 317E01D0
Copy CRC 317E01D0
Copy OK

Track 12
Filename D:\FLAC\Julian Schnabel - Every Silver Lining Has A Cloud (1995) [FLAC]\12 - It's Great To Be Nine.wav

Pre-gap length 0:00:00.86

Peak level 97.7 %
Track quality 99.9 %
Test CRC 60921457
Copy CRC 60921457
Copy OK

Track 13
Filename D:\FLAC\Julian Schnabel - Every Silver Lining Has A Cloud (1995) [FLAC]\13 - Apartment #9.wav

Pre-gap length 0:00:01.40

Peak level 84.2 %
Track quality 100.0 %
Test CRC E82178EB
Copy CRC E82178EB
Copy OK

No errors occured


End of status report


Julian Schnabel - Every Silver Lining Has A Cloud (1995) **[RE-UP]**


Check out other titles in my blog.