Tags
Language
Tags

Jac van Steen, BBC Philharmonic Orchestra - David Matthews: A Vision of the Sea (2021)

Posted By: ArlegZ
Jac van Steen, BBC Philharmonic Orchestra - David Matthews: A Vision of the Sea (2021)

Jac van Steen, BBC Philharmonic Orchestra - David Matthews: A Vision of the Sea (2021)
EAC | FLAC | Image (Cue & Log) ~ 296 Mb | Total time: 67:47 | Scans included
Classical | Label: Signum Records | # SIGCD647 | Recorded: 2017

A frequent collaborator with both the BBC Philharmonic Orchestra and Jac van Steen, David Matthews new recording explores both the natural world and the symphonic idea, the second of which has, in his words, obsessed me since I started composing at the age of 16. As well the Sinfonia and Symphony No. 8, the programme includes Toward Sunrise; inspired by the sound of the sun (a rising fourth of C-F), as recorded by scientists at Sheffield University, and A Vision of the Sea; drawn from the sights and sounds of English Channel near the composers home in Deal, Kent. With a singular body of work spanning almost 60 years, David Matthews has established an international reputation as one of the leading symphonists of our time. Born in London in 1943, he began composing at the age of sixteen. He read Classics at the University of Nottingham where he has more recently been made an Honorary Doctor of Music and afterwards studied composition privately with Anthony Milner. He was also helped by the advice and encouragement of Nicholas Maw and spent three years as an assistant to Benjamin Britten in the late 1960s. In the 1970s a friendship with the Australian composer Peter Sculthorpe (leading to collaboration and numerous trips to Sydney) helped Matthews find his own distinctive voice.

Performer:
BBC Philharmonic Orchestra
Jac van Steen, conductor

Track List:
01. Toward Sunrise, Op. 117
Symphony No. 8, Op. 131
02. I. Andante - Allegro energico
03. II. Adagio, con molto sentimento
04. III. Allegretto giocoso
05. Sinfonia, Op. 67
A Vision of the Sea, Op. 125
06. Poco lento e calmo
07. Vivacissimo
08. Maestoso
09. Lento


Exact Audio Copy V1.5 from 20. February 2020

EAC extraction logfile from 9. July 2021, 22:22

BBC Philharmonic Orchestra, Jac van Steen / Matthews - A Vision of the Sea

Used drive : ASUS SDRW-08U7M-U Adapter: 1 ID: 0

Read mode : Secure
Utilize accurate stream : Yes
Defeat audio cache : Yes
Make use of C2 pointers : No

Read offset correction : 6
Overread into Lead-In and Lead-Out : No
Fill up missing offset samples with silence : Yes
Delete leading and trailing silent blocks : No
Null samples used in CRC calculations : Yes
Used interface : Native Win32 interface for Win NT & 2000

Used output format : User Defined Encoder
Selected bitrate : 128 kBit/s
Quality : High
Add ID3 tag : No
Command line compressor : C:\Program Files (x86)\Exact Audio Copy\Flac\flac.exe
Additional command line options : -V -8 -T "Date=%year%" -T "Genre=%genre%" %source%


TOC of the extracted CD

Track | Start | Length | Start sector | End sector
––––––––––––––––––––––––––––-
1 | 0:00.00 | 9:42.00 | 0 | 43649
2 | 9:42.00 | 8:59.40 | 43650 | 84114
3 | 18:41.40 | 10:35.20 | 84115 | 131759
4 | 29:16.60 | 9:13.45 | 131760 | 173279
5 | 38:30.30 | 8:18.45 | 173280 | 210674
6 | 46:49.00 | 5:27.15 | 210675 | 235214
7 | 52:16.15 | 6:12.70 | 235215 | 263184
8 | 58:29.10 | 4:22.06 | 263185 | 282840
9 | 62:51.16 | 4:54.04 | 282841 | 304894


Range status and errors

Selected range

Filename C:\temp\Matthews - A Vision of the Sea - 2021\Matthews - A Vision of the Sea.wav

Peak level 98.6 %
Extraction speed 5.2 X
Range quality 100.0 %
Test CRC F128CFCE
Copy CRC F128CFCE
Copy OK

No errors occurred


AccurateRip summary

Track 1 not present in database
Track 2 not present in database
Track 3 not present in database
Track 4 not present in database
Track 5 not present in database
Track 6 not present in database
Track 7 not present in database
Track 8 not present in database
Track 9 not present in database

None of the tracks are present in the AccurateRip database

End of status report

==== Log checksum 9F9DAFA7626DE604CBB7F4ABBA5B0EA4978DC1EE57F140369287FB9F41BFC3CB ====

Jac van Steen, BBC Philharmonic Orchestra - David Matthews: A Vision of the Sea (2021)

Thanks to the original releaser