Subcategories

Jack Teagarden - 1930 Studio Sessions (2006)

Posted By: Designol
Jack Teagarden - 1930 Studio Sessions (2006)

Jack Teagarden - 1930 Studio Sessions (2006)
EAC | FLAC | Tracks (Cue&Log) ~ 285 Mb (incl 5%) | Mp3 (CBR320) ~ 192 Mb (incl 5%) | Scans ~ 89 Mb
Genre: Dixieland, Swing, Early Jazz | Label: Jazz Oracle | # BDW 8053 | Time: 01:19:55

Singing trombonist Jack Teagarden came up in the jazz and dance bands of his native Texas and the surrounding territories. By the end of the '20s he was making noise with the Eddie Condon mob in New York City, where the South-and-Midwesterners quickly learned that authentic, New Orleans-Chicago-styled jazz could be performed in public if you didn't need to eat more than one meal per day. The paying gigs were with society dance bands, and Teagarden made ends meet during the first half of 1930 by serving in the brass sections of orchestras under the direction of Ben Selvin and Sam Lanin, as well as the toothpowder and toothpaste-affiliated Ipana Troubadours. This type of economic problem solving would lead to his being contractually tethered to the Paul Whiteman Orchestra during the years 1933-1939. In 2006, the Jazz Oracle label released a thrilling 25-track collection of recordings that document Teagarden's professional activity during the first grueling months of the Great Depression. Unlike his collaborations with Condon, these records do not necessarily spotlight Teagarden as soloist or vocalist. 1930 was a banner year in the golden age of squeaky clean crooners and pop vocalists. The music is deliciously dated and heavily arranged, with an innocent charm that is peculiarly reassuring. Vocals are perpetrated by Smith Ballew, Irving Kaufman, Paul Small, and Artie Dunn, who pipes up during ""Accordion Joe"," a novelty featuring squeezebox specialist Cornell Smelser as well as reedmen Adrian Rollini and Jimmy Dorsey, and guitarist Dick McDonough. This seems to have been Smelser's theme song, and he was lucky enough to record it twice again a couple of months later with Duke Ellington's Orchestra. Other memorable jazz players who are heard on this fascinating collection are trumpeter Charlie Spivak, clarinetist Benny Goodman, tenor saxophonist Larry Binyon (who had recorded with Fats Waller & His Buddies a few months earlier); pianists Rube Bloom and Arthur Schutt, and guitarist Carl Kress, here confined to a stately banjo. This disc, which contains several duplicate titles as vocal and instrumental takes, is a modest cousin to the first few volumes in Mosaic's massive box set, The Complete Brunswick, Parlophone & Vocalion Bunny Berigan Sessions. Teagarden's adventures as a section player are easily digestible and would go well with cheddar, chocolate, coffee, cookies, and milk.

Review by arwulf arwulf, Allmusic.com

Jack Teagarden - 1930 Studio Sessions (2006)



Tracklist:

01. Good For You - Bad For Me (03:21)
02. Thank Your Father (Columbia) (03:15)
03. Thank Your Father (Parlaphone) (03:14)
04. If I Were King (vocal) (03:08)
05. If I Were King (non-vocal) (03:10)
06. Oh! How I Adore You (vocal) (03:35)
07. Oh! How I Adore You (non-vocal) (03:20)
08. Accordion Joe (03:18)
09. Happy Days Are Here Again (02:50)
10. There's Danger In Your Eyes Cherie (02:57)
11. When I'm Looking At You (03:02)
12. Sing (vocal) (03:16)
13. Sing (non-vocal) (03:13)
14. Promises (vocal) (03:22)
15. Promises (non-vocal) (02:50)
16. Live And Love Today (03:11)
17. Seems To Me (03:27)
18. Rollin' Down The River (vocal) (03:22)
19. Rollin' Down The River (non-vocal) (03:22)
20. I Wonder How It Feels (03:12)
21. Little White Lies (03:13)
22. Under The Moon, It's You (03:13)
23. Here Comes The Sun (03:04)
24. Swingin' In A Hammock (03:02)
25. Hullabaloo (02:48)


Exact Audio Copy V1.0 beta 4 from 7. December 2014

EAC extraction logfile from 9. June 2016, 11:47

Jack Teagarden / 1930 Studio Sessions

Used drive : HL-DT-STDVD+-RW GH82N Adapter: 1 ID: 0

Read mode : Secure
Utilize accurate stream : Yes
Defeat audio cache : Yes
Make use of C2 pointers : No

Read offset correction : 667
Overread into Lead-In and Lead-Out : No
Fill up missing offset samples with silence : Yes
Delete leading and trailing silent blocks : No
Null samples used in CRC calculations : Yes
Used interface : Native Win32 interface for Win NT & 2000
Gap handling : Appended to previous track

Used output format : User Defined Encoder
Selected bitrate : 1024 kBit/s
Quality : High
Add ID3 tag : No
Command line compressor : C:\Program Files (x86)\Exact Audio Copy\FLAC\FLAC.EXE
Additional command line options : -6 -V -T "ARTIST=%artist%" -T "TITLE=%title%" -T "ALBUM=%albumtitle%" -T "DATE=%year%" -T "TRACKNUMBER=%tracknr%" -T "GENRE=%genre%" -T "COMMENT=%comment%" -T "BAND=%albuminterpret%" -T "ALBUMARTIST=%albuminterpret%" -T "COMPOSER=%composer%" %haslyrics%–tag-from-file=LYRICS="%lyricsfile%"%haslyrics% -T "DISCNUMBER=%cdnumber%" -T "TOTALDISCS=%totalcds%" -T "TOTALTRACKS=%numtracks%" %hascover%–picture="%coverfile%"%hascover% %source% -o %dest%


TOC of the extracted CD

Track | Start | Length | Start sector | End sector
––––––––––––––––––––––––––––-
1 | 0:00.00 | 3:21.00 | 0 | 15074
2 | 3:21.00 | 3:15.73 | 15075 | 29772
3 | 6:36.73 | 3:14.28 | 29773 | 44350
4 | 9:51.26 | 3:08.65 | 44351 | 58515
5 | 13:00.16 | 3:10.08 | 58516 | 72773
6 | 16:10.24 | 3:35.58 | 72774 | 88956
7 | 19:46.07 | 3:20.04 | 88957 | 103960
8 | 23:06.11 | 3:18.39 | 103961 | 118849
9 | 26:24.50 | 2:50.36 | 118850 | 131635
10 | 29:15.11 | 2:57.33 | 131636 | 144943
11 | 32:12.44 | 3:02.39 | 144944 | 158632
12 | 35:15.08 | 3:16.16 | 158633 | 173348
13 | 38:31.24 | 3:13.36 | 173349 | 187859
14 | 41:44.60 | 3:22.64 | 187860 | 203073
15 | 45:07.49 | 2:50.23 | 203074 | 215846
16 | 47:57.72 | 3:11.59 | 215847 | 230230
17 | 51:09.56 | 3:27.69 | 230231 | 245824
18 | 54:37.50 | 3:22.25 | 245825 | 260999
19 | 58:00.00 | 3:22.48 | 261000 | 276197
20 | 61:22.48 | 3:12.27 | 276198 | 290624
21 | 64:35.00 | 3:13.12 | 290625 | 305111
22 | 67:48.12 | 3:13.11 | 305112 | 319597
23 | 71:01.23 | 3:04.02 | 319598 | 333399
24 | 74:05.25 | 3:02.11 | 333400 | 347060
25 | 77:07.36 | 2:48.13 | 347061 | 359673


Track 1

Filename C:\Rips\Jack Teagarden - 1930 Studio Sessions\01 Good For You - Bad For Me.wav

Pre-gap length 0:00:02.00

Peak level 69.7 %
Extraction speed 1.8 X
Track quality 100.0 %
Copy CRC 4DF296B6
Cannot be verified as accurate (confidence 1) [7B4B1BDA], AccurateRip returned [C6218DCB] (AR v2)
Copy OK

Track 2

Filename C:\Rips\Jack Teagarden - 1930 Studio Sessions\02 Thank Your Father (Columbia).wav

Pre-gap length 0:00:02.00

Peak level 65.5 %
Extraction speed 1.9 X
Track quality 100.0 %
Copy CRC 655AEBB0
Cannot be verified as accurate (confidence 1) [834D805E], AccurateRip returned [29E94D43] (AR v2)
Copy OK

Track 3

Filename C:\Rips\Jack Teagarden - 1930 Studio Sessions\03 Thank Your Father (Parlaphone).wav

Pre-gap length 0:00:02.00

Peak level 64.9 %
Extraction speed 2.1 X
Track quality 100.0 %
Copy CRC 5F201D65
Cannot be verified as accurate (confidence 1) [7AF41089], AccurateRip returned [3066B4F4] (AR v2)
Copy OK

Track 4

Filename C:\Rips\Jack Teagarden - 1930 Studio Sessions\04 If I Were King (vocal).wav

Pre-gap length 0:00:03.00

Peak level 100.0 %
Extraction speed 1.8 X
Track quality 99.9 %
Copy CRC 21A4F4E3
Cannot be verified as accurate (confidence 1) [625F8639], AccurateRip returned [38279226] (AR v2)
Copy OK

Track 5

Filename C:\Rips\Jack Teagarden - 1930 Studio Sessions\05 If I Were King (non-vocal).wav

Pre-gap length 0:00:03.00

Peak level 81.1 %
Extraction speed 2.2 X
Track quality 100.0 %
Copy CRC 320C04A6
Cannot be verified as accurate (confidence 1) [0E1006DC], AccurateRip returned [FC047563] (AR v2)
Copy OK

Track 6

Filename C:\Rips\Jack Teagarden - 1930 Studio Sessions\06 Oh! How I Adore You (vocal).wav

Pre-gap length 0:00:03.00

Peak level 66.8 %
Extraction speed 2.1 X
Track quality 99.9 %
Copy CRC 5C821751
Cannot be verified as accurate (confidence 1) [2F80C474], AccurateRip returned [2DB3CC30] (AR v2)
Copy OK

Track 7

Filename C:\Rips\Jack Teagarden - 1930 Studio Sessions\07 Oh! How I Adore You (non-vocal).wav

Pre-gap length 0:00:03.00

Peak level 84.2 %
Extraction speed 2.5 X
Track quality 100.0 %
Copy CRC 8831B013
Cannot be verified as accurate (confidence 1) [FB28073D], AccurateRip returned [5026692A] (AR v2)
Copy OK

Track 8

Filename C:\Rips\Jack Teagarden - 1930 Studio Sessions\08 Accordion Joe.wav

Pre-gap length 0:00:03.00

Peak level 72.6 %
Extraction speed 2.2 X
Track quality 99.9 %
Copy CRC A6028BDE
Cannot be verified as accurate (confidence 1) [A7EC574D], AccurateRip returned [50BA4A71] (AR v2)
Copy OK

Track 9

Filename C:\Rips\Jack Teagarden - 1930 Studio Sessions\09 Happy Days Are Here Again.wav

Pre-gap length 0:00:03.00

Peak level 66.6 %
Extraction speed 2.7 X
Track quality 100.0 %
Copy CRC 856EF284
Cannot be verified as accurate (confidence 1) [6F4A6446], AccurateRip returned [6D850422] (AR v2)
Copy OK

Track 10

Filename C:\Rips\Jack Teagarden - 1930 Studio Sessions\10 There's Danger In Your Eyes Cherie.wav

Pre-gap length 0:00:03.00

Peak level 44.4 %
Extraction speed 2.8 X
Track quality 100.0 %
Copy CRC EFD31C43
Cannot be verified as accurate (confidence 1) [16E8CBF4], AccurateRip returned [57E9F2BC] (AR v2)
Copy OK

Track 11

Filename C:\Rips\Jack Teagarden - 1930 Studio Sessions\11 When I'm Looking At You.wav

Pre-gap length 0:00:03.00

Peak level 63.2 %
Extraction speed 2.8 X
Track quality 100.0 %
Copy CRC 6FBF51BF
Cannot be verified as accurate (confidence 1) [A93EC6E0], AccurateRip returned [7E1DD0A5] (AR v2)
Copy OK

Track 12

Filename C:\Rips\Jack Teagarden - 1930 Studio Sessions\12 Sing (vocal).wav

Pre-gap length 0:00:02.74

Peak level 63.8 %
Extraction speed 2.5 X
Track quality 99.9 %
Copy CRC 3FD567ED
Cannot be verified as accurate (confidence 1) [39385A4E], AccurateRip returned [523C9923] (AR v2)
Copy OK

Track 13

Filename C:\Rips\Jack Teagarden - 1930 Studio Sessions\13 Sing (non-vocal).wav

Pre-gap length 0:00:03.00

Peak level 89.3 %
Extraction speed 3.0 X
Track quality 100.0 %
Copy CRC 3AD1E6C3
Cannot be verified as accurate (confidence 1) [27A8607F], AccurateRip returned [FDCBC7D3] (AR v2)
Copy OK

Track 14

Filename C:\Rips\Jack Teagarden - 1930 Studio Sessions\14 Promises (vocal).wav

Pre-gap length 0:00:03.00

Peak level 63.0 %
Extraction speed 2.7 X
Track quality 99.9 %
Copy CRC 2ECC1902
Cannot be verified as accurate (confidence 1) [F8C8A5BE], AccurateRip returned [1DC62F60] (AR v2)
Copy OK

Track 15

Filename C:\Rips\Jack Teagarden - 1930 Studio Sessions\15 Promises (non-vocal).wav

Pre-gap length 0:00:03.00

Peak level 85.4 %
Extraction speed 2.6 X
Track quality 99.9 %
Copy CRC 4CCECFE4
Cannot be verified as accurate (confidence 1) [9BC658C0], AccurateRip returned [A6741EFD] (AR v2)
Copy OK

Track 16

Filename C:\Rips\Jack Teagarden - 1930 Studio Sessions\16 Live And Love Today.wav

Pre-gap length 0:00:03.00

Peak level 59.3 %
Extraction speed 2.7 X
Track quality 99.9 %
Copy CRC 499353A5
Cannot be verified as accurate (confidence 1) [EA7FA156], AccurateRip returned [84E65D7E] (AR v2)
Copy OK

Track 17

Filename C:\Rips\Jack Teagarden - 1930 Studio Sessions\17 Seems To Me.wav

Pre-gap length 0:00:03.00

Peak level 66.6 %
Extraction speed 3.4 X
Track quality 100.0 %
Copy CRC 177FA857
Cannot be verified as accurate (confidence 1) [8FD02805], AccurateRip returned [7DC1F042] (AR v2)
Copy OK

Track 18

Filename C:\Rips\Jack Teagarden - 1930 Studio Sessions\18 Rollin' Down The River (vocal).wav

Pre-gap length 0:00:03.00

Peak level 48.2 %
Extraction speed 3.5 X
Track quality 100.0 %
Copy CRC 1CCBFB45
Cannot be verified as accurate (confidence 1) [CB470ED7], AccurateRip returned [ED1A0F23] (AR v2)
Copy OK

Track 19

Filename C:\Rips\Jack Teagarden - 1930 Studio Sessions\19 Rollin' Down The River (non-vocal).wav

Pre-gap length 0:00:02.00

Peak level 70.8 %
Extraction speed 3.6 X
Track quality 100.0 %
Copy CRC A063C8A7
Cannot be verified as accurate (confidence 1) [3BC5908F], AccurateRip returned [B329E480] (AR v2)
Copy OK

Track 20

Filename C:\Rips\Jack Teagarden - 1930 Studio Sessions\20 I Wonder How It Feels.wav

Pre-gap length 0:00:02.00

Peak level 53.2 %
Extraction speed 3.6 X
Track quality 100.0 %
Copy CRC 804D21EB
Cannot be verified as accurate (confidence 1) [BDBFEE51], AccurateRip returned [11C78341] (AR v2)
Copy OK

Track 21

Filename C:\Rips\Jack Teagarden - 1930 Studio Sessions\21 Little White Lies.wav

Pre-gap length 0:00:02.00

Peak level 61.7 %
Extraction speed 3.5 X
Track quality 100.0 %
Copy CRC E3B9E6F2
Cannot be verified as accurate (confidence 1) [B892EDA6], AccurateRip returned [36794F44] (AR v2)
Copy OK

Track 22

Filename C:\Rips\Jack Teagarden - 1930 Studio Sessions\22 Under The Moon, It's You.wav

Pre-gap length 0:00:02.00

Peak level 52.9 %
Extraction speed 3.6 X
Track quality 100.0 %
Copy CRC 85E4DEFE
Cannot be verified as accurate (confidence 1) [191E0DCA], AccurateRip returned [08A5B938] (AR v2)
Copy OK

Track 23

Filename C:\Rips\Jack Teagarden - 1930 Studio Sessions\23 Here Comes The Sun.wav

Pre-gap length 0:00:02.00

Peak level 44.2 %
Extraction speed 3.8 X
Track quality 100.0 %
Copy CRC 4D8F7617
Cannot be verified as accurate (confidence 1) [28F85D00], AccurateRip returned [A4587E8A] (AR v2)
Copy OK

Track 24

Filename C:\Rips\Jack Teagarden - 1930 Studio Sessions\24 Swingin' In A Hammock.wav

Pre-gap length 0:00:02.00

Peak level 45.9 %
Extraction speed 3.1 X
Track quality 99.9 %
Copy CRC 5412A7DD
Cannot be verified as accurate (confidence 1) [55F6323C], AccurateRip returned [CFF511C5] (AR v2)
Copy OK

Track 25

Filename C:\Rips\Jack Teagarden - 1930 Studio Sessions\25 Hullabaloo.wav

Pre-gap length 0:00:01.74

Peak level 49.9 %
Extraction speed 3.8 X
Track quality 100.0 %
Copy CRC B9A277A5
Cannot be verified as accurate (confidence 1) [B5FFCBC5], AccurateRip returned [7BE5BF69] (AR v2)
Copy OK


No tracks could be verified as accurate
You may have a different pressing from the one(s) in the database

No errors occurred

End of status report

–– CUETools DB Plugin V2.1.4

[CTDB TOCID: tqzCpLqXX9k1KXdaq2p1eUlGDfk-] disk not present in database
Submit result: tqzCpLqXX9k1KXdaq2p1eUlGDfk- has been uploaded


==== Log checksum F58A26701775BD176563EF0B0490E515E4BB7973607E46B1F400DE6039459DD2 ====

foobar2000 1.2 / Dynamic Range Meter 1.1.1
log date: 2016-06-11 13:01:02

––––––––––––––––––––––––––––––––––––––––
Analyzed: Ben Selvin And His Orchestra / 1930 Studio Sessions (1-7)
Cornell And His Orchestra / 1930 Studio Sessions (8)
Ipana Troubadours (S.C. Lanin - Director) / 1930 Studio Sessions (9-13)
Sam Lanin And His Famous Players / 1930 Studio Sessions (14-20)
Sam Lanin's Troubadours / 1930 Studio Sessions (21-25)
––––––––––––––––––––––––––––––––––––––––

DR Peak RMS Duration Track
––––––––––––––––––––––––––––––––––––––––
DR12 -3.13 dB -18.24 dB 3:21 01-Good For You - Bad For Me
DR11 -3.67 dB -18.36 dB 3:16 02-Thank Your Father (Columbia)
DR12 -3.75 dB -18.60 dB 3:14 03-Thank Your Father (Parlaphone)
DR14 0.00 dB -17.28 dB 3:09 04-If I Were King (vocal)
DR13 -1.82 dB -18.86 dB 3:10 05-If I Were King (non-vocal)
DR12 -3.50 dB -18.31 dB 3:36 06-Oh! How I Adore You (vocal)
DR13 -1.49 dB -17.35 dB 3:20 07-Oh! How I Adore You (non-vocal)
DR12 -2.78 dB -18.40 dB 3:19 08-Accordion Joe
DR8 -3.98 dB -18.20 dB 3:03 11-When I'm Looking At You
DR12 -3.89 dB -17.69 dB 3:16 12-Sing (vocal)
DR15 -0.98 dB -18.09 dB 3:13 13-Sing (non-vocal)
DR11 -4.01 dB -17.71 dB 3:23 14-Promises (vocal)
DR13 -1.37 dB -17.11 dB 2:50 15-Promises (non-vocal)
DR10 -4.53 dB -18.62 dB 3:12 16-Live And Love Today
DR13 -3.52 dB -18.86 dB 3:28 17-Seems To Me
DR11 -6.33 dB -19.34 dB 3:22 18-Rollin' Down The River (vocal)
DR15 -3.00 dB -20.59 dB 3:23 19-Rollin' Down The River (non-vocal)
DR13 -5.47 dB -20.68 dB 3:12 20-I Wonder How It Feels
DR13 -4.19 dB -21.12 dB 3:13 21-Little White Lies
DR13 -5.52 dB -20.38 dB 3:13 22-Under The Moon, It's You
DR7 -3.53 dB -17.51 dB 2:50 09-Happy Days Are Here Again
DR8 -7.05 dB -17.14 dB 2:57 10-There's Danger In Your Eyes Cherie
DR9 -7.08 dB -18.81 dB 3:04 23-Here Comes The Sun
DR9 -6.75 dB -17.14 dB 3:02 24-Swingin' In A Hammock
DR10 -6.02 dB -17.95 dB 2:48 25-Hullabaloo
––––––––––––––––––––––––––––––––––––––––

Number of tracks: 25
Official DR value: DR12

Samplerate: 44100 Hz
Channels: 2
Bits per sample: 16
Bitrate: 488 kbps
Codec: FLAC
================================================================================

Jack Teagarden - 1930 Studio Sessions (2006)

All thanks to original releaser - hoppyharrington

More interesting music in My Blog