Subcategories

Jackson Browne - Running On Empty (1977) [Remastered 2005, CD + DVD-Audio]

Posted By: Designol
Jackson Browne - Running On Empty (1977) [Remastered 2005, CD + DVD-Audio]

Jackson Browne - Running On Empty (1977) [Remastered 2005, CD + DVD-Audio]
EAC | FLAC | Image (Cue&Log) ~ 275 Mb (incl 5%) | Mp3 (CBR320) ~ 118 Mb (incl 5%) | Scans included
DVD-A | ISO | Audio: MLP: 2.0/5.1 (24/96); DTS: 5.1; AC3 2.0/5.1 (192/448 kbps) | 7.26 GB
Singer/Songwriter, Rock, Soft Rock | Elektra/Rhino/Asylum | # R2 78283/R9 78283 | 00:42:03

Running on Empty is the fifth album by American singer-songwriter Jackson Browne. Released in 1977, the album reached #3 on the Billboard Pop Albums chart in 1978 and stayed on the charts for 65 weeks. The single for the title track, "Running on Empty", peaked at #11 and the follow-up single, "The Load-Out"/"Stay", reached #11 on the Billboard Pop Singles chart. The song "Running on Empty" was included in the film Forrest Gump. On November 15, 2005, Elektra/Rhino issued a remastered version with the following additional tracks: 11. "Cocaine Again" and 12. "Edwardsville Room 124" on Disc 2 of the package, which is a DVD Audio version of the album's track lineup that features a 5.1 surround sound mix, among other bonus items, such as video montages and lyrics. Disc 1 is a remaster of the original album's song list only. The remaster is missing the first 25 seconds of audience ambience that, on all other previous editions of the album, led into the beginning of the album's title track. For reasons unknown, this snippet, which included the sounds of the musicians' count into the song's opening, was edited out on this version, though curiously the Disc 2 DVD Audio version includes the 25 seconds missing on Disc 1.

Having acknowledged a certain creative desperation on The Pretender, Jackson Browne lowered his sights (and raised his commercial appeal) considerably with Running on Empty, which was more a concept album about the road than an actual live album, even though its songs were sometimes recorded on-stage (and sometimes on the bus or in the hotel). Unlike most live albums, though, it consisted of previously unrecorded songs. Browne had less creative participation on this album than on any he ever made, solely composing only two songs, co-writing four others, and covering another four. And he had less to say – the title song and leadoff track neatly conjoined his artistic and escapist themes. Figuratively and creatively, he was out of gas, but like "the pretender," he still had to make a living. The songs covered all aspects of touring, from Danny O'Keefe's "The Road," which detailed romantic encounters, and "Rosie" (co-written by Browne and his manager Donald Miller), in which a soundman pays tribute to auto-eroticism, to, well, "Cocaine," to the travails of being a roadie ("The Load-Out"). Audience noises, humorous asides, loose playing – they were all part of a rough-around-the-edges musical evocation of the rock & roll touring life. It was not what fans had come to expect from Browne, of course, but the disaffected were more than outnumbered by the newly converted. (It didn't hurt that "Running on Empty" and "The Load-Out"/"Stay" both became Top 40 hits.) As a result, Browne's least ambitious, but perhaps most accessible, album ironically became his biggest seller. But it is not characteristic of his other work: for many, it will be the only Browne album they will want to own, just as others always will regard it disdainfully as "Jackson Browne lite."

Review by William Ruhlmann, Allmusic.com

Jackson Browne - Running On Empty (1977) [Remastered 2005, CD + DVD-Audio]



Tracklist:

01. Running On Empty (05:00)
02. The Road (04:50)
03. Rosie (03:36)
04. You Love The Thunder (03:56)
05. Cocaine (04:52)
06. Shaky Town (03:40)
07. Love Needs A Heart (03:33)
08. Nothing But Time (03:32)
09. The Load Out (05:35)
10. Stay (03:23)


Exact Audio Copy V0.99 prebeta 3 from 28. July 2007

EAC extraction logfile from 5. May 2009, 16:39

Jackson Browne / Running On Empty [2005 Remaster]

Used drive : TSSTcorpCDDVDW SE-S204N Adapter: 6 ID: 4

Read mode : Secure
Utilize accurate stream : Yes
Defeat audio cache : Yes
Make use of C2 pointers : No

Read offset correction : 6
Overread into Lead-In and Lead-Out : No
Fill up missing offset samples with silence : Yes
Delete leading and trailing silent blocks : No
Null samples used in CRC calculations : Yes
Used interface : Installed external ASPI interface

Used output format : User Defined Encoder
Selected bitrate : 768 kBit/s
Quality : High
Add ID3 tag : No
Command line compressor : H:\Program Files\Exact Audio Copy\FLAC\FLAC.EXE
Additional command line options : -6 -V -T "ARTIST=%a" -T "TITLE=%t" -T "ALBUM=%g" -T "DATE=%y" -T "TRACKNUMBER=%n" -T "GENRE=%m" -T "COMMENT=%e" %s -o %d


TOC of the extracted CD

Track | Start | Length | Start sector | End sector
––––––––––––––––––––––––––––-
1 | 0:00.00 | 5:00.60 | 0 | 22559
2 | 5:00.60 | 4:50.39 | 22560 | 44348
3 | 9:51.24 | 3:36.73 | 44349 | 60621
4 | 13:28.22 | 3:56.46 | 60622 | 78367
5 | 17:24.68 | 4:52.16 | 78368 | 100283
6 | 22:17.09 | 3:40.43 | 100284 | 116826
7 | 25:57.52 | 3:33.65 | 116827 | 132866
8 | 29:31.42 | 3:32.30 | 132867 | 148796
9 | 33:03.72 | 5:35.31 | 148797 | 173952
10 | 38:39.28 | 3:23.63 | 173953 | 189240


Range status and errors

Selected range

Filename C:\TTT\Jackson Browne - Running On Empty\Jackson Browne - Running On Empty [2005 Remaster].wav

Peak level 100.0 %
Range quality 100.0 %
Test CRC EEF3ECCB
Copy CRC EEF3ECCB
Copy OK

No errors occurred


AccurateRip summary

Track 1 accurately ripped (confidence 9) [40B15543]
Track 2 accurately ripped (confidence 9) [3B4E1CC9]
Track 3 accurately ripped (confidence 9) [8D86CD2B]
Track 4 accurately ripped (confidence 9) [B6F5A185]
Track 5 accurately ripped (confidence 9) [217D08F7]
Track 6 accurately ripped (confidence 9) [DBBE2804]
Track 7 accurately ripped (confidence 9) [A3F2A226]
Track 8 accurately ripped (confidence 8) [DD917DD8]
Track 9 accurately ripped (confidence 8) [021D5719]
Track 10 accurately ripped (confidence 8) [7057D3B6]

All tracks accurately ripped

End of status report

foobar2000 1.2 / Dynamic Range Meter 1.1.1
log date: 2015-07-29 15:33:02

––––––––––––––––––––––––––––––––––––––––
Analyzed: Jackson Browne / Running On Empty [2005 Remaster]
––––––––––––––––––––––––––––––––––––––––

DR Peak RMS Duration Track
––––––––––––––––––––––––––––––––––––––––
DR9 0.00 dB -10.08 dB 5:01 01-Running On Empty
DR11 0.00 dB -13.94 dB 4:51 02-The Road
DR12 0.00 dB -14.74 dB 3:37 03-Rosie
DR9 0.00 dB -10.50 dB 3:57 04-You Love The Thunder
DR15 0.00 dB -17.98 dB 4:52 05-Cocaine
DR10 0.00 dB -11.77 dB 3:41 06-Shaky Town
DR10 0.00 dB -12.58 dB 3:34 07-Love Needs A Heart
DR11 0.00 dB -14.73 dB 3:32 08-Nothing But Time
DR11 0.00 dB -15.08 dB 5:35 09-The Load Out
DR10 0.00 dB -11.65 dB 3:24 10-Stay
––––––––––––––––––––––––––––––––––––––––

Number of tracks: 10
Official DR value: DR11

Samplerate: 44100 Hz
Channels: 2
Bits per sample: 16
Bitrate: 816 kbps
Codec: FLAC
================================================================================


Jackson Browne - Running On Empty (1977) [Remastered 2005, CD + DVD-Audio]

Jackson Browne - Running On Empty (1977) [Remastered 2005, CD + DVD-Audio]

Jackson Browne - Running On Empty (1977) [Remastered 2005, CD + DVD-Audio]

Jackson Browne - 			  		      	 			   		      	 			   		      	 			   		    			 Running On Empty (1977) [Remastered 2005, CD + DVD-Audio]

Jackson Browne - Running On Empty (1977) [Remastered 2005, CD + DVD-Audio]


DVD content:

01. Running On Empty 05:00
02. The Road 04:50
03. Rosie 03:36
04. You Love The Thunder 03:56
05. Cocaine 04:52
06. Shaky Town 03:40
07. Love Needs A Heart 03:33
08. Nothing But Time 03:32
09. The Load Out 05:35
10. Stay 03:23
11. Cocaine Again 03:17
12. Edwardsville Room 124 04:44

Special Features:
- Running On Empty Montage
- Tour Photo Album
- Photo Gallery
- Lyrics
- Weblink
- Credits




Jackson Browne - Running On Empty (1977) [Remastered 2005, CD + DVD-Audio]

Jackson Browne - Running On Empty (1977) [Remastered 2005, CD + DVD-Audio]