Tags
Language
Tags

Jackson Browne - The Next Voice You Hear: The Best of Jackson Browne (1997)

Posted By: Designol
Jackson Browne - The Next Voice You Hear: The Best of Jackson Browne (1997)

Jackson Browne - The Next Voice You Hear: The Best of Jackson Browne (1997)
EAC | FLAC | Tracks (Cue&Log) ~ 471 Mb | Mp3 (CBR320) ~ 177 Mb | Scans ~ 97 Mb
Label: Elektra | # 7559621522 | Time: 01:16:40
Singer/Songwriter, Rock, Soft Rock

Theoretically, assembling a Jackson Browne greatest-hits collection would be easy, but The Next Voice You Hear: The Best of Jackson Browne proves that isn't necessarily the case. Boasting 13 tracks, plus two new songs, The Next Voice You Hear contains some of Browne's biggest hits – "Doctor My Eyes," "Running on Empty," "Somebody's Baby," "Tender Is the Night" – but it leaves just as many off, including "Rock Me on the Water," "Here Come Those Tears Again," "Stay," "Boulevard," "Lawyers in Love," and "For America." Of course, singles only told half the story with Browne, and many of his greatest songs were only available as album tracks. Therefore, it makes sense that album cuts like "These Days," "Late for Sky," and "The Pretender" are present, but there are still a number of equally good, if not better, cuts that are left off. As a result, The Next Voice You Hear is merely adequate for casual Browne fans, but it's nowhere near definitive.

Review by Stephen Thomas Erlewine, Allmusic.com

Jackson Browne at Allmusic
Jackson Browne Website
Jackson Browne at Wiki

Tracklist:

01. Doctor My Eyes (3:20)
02. These Days (4:40)
03. Fountain Of Sorrow (6:53)
04. Late For The Sky (5:38)
05. The Pretender (5:53)
06. Running On Empty (4:56)
07. The Load Out (5:04)
08. Stay (2:28)
09. Call It A Loan (4:18)
10. Somebody's Baby (4:23)
11. Tender Is The Night (4:37)
12. In The Shape Of A Heart (5:42)
13. Lives In The Balance (4:16)
14. The Barricades Of Heaven (5:44)
15. The Rebel Jesus (3:58)
16. The Next Voice You Hear (4:49)


Exact Audio Copy V1.1 from 23. June 2015

EAC extraction logfile from 8. February 2019, 23:35

Jackson Browne / The Best of Jackson Browne

Used drive : HL-DT-STDVDRAM GH24NS90 Adapter: 1 ID: 0

Read mode : Secure
Utilize accurate stream : Yes
Defeat audio cache : No
Make use of C2 pointers : Yes

Read offset correction : 6
Overread into Lead-In and Lead-Out : No
Fill up missing offset samples with silence : Yes
Delete leading and trailing silent blocks : No
Null samples used in CRC calculations : Yes
Used interface : Native Win32 interface for Win NT & 2000
Gap handling : Appended to previous track

Used output format : User Defined Encoder
Selected bitrate : 1024 kBit/s
Quality : High
Add ID3 tag : No
Command line compressor : C:\Program Files (x86)\FLAC\flac.exe


TOC of the extracted CD

Track | Start | Length | Start sector | End sector
––––––––––––––––––––––––––––-
1 | 0:00.00 | 3:20.20 | 0 | 15019
2 | 3:20.20 | 4:39.70 | 15020 | 36014
3 | 8:00.15 | 6:53.15 | 36015 | 67004
4 | 14:53.30 | 5:38.25 | 67005 | 92379
5 | 20:31.55 | 5:53.37 | 92380 | 118891
6 | 26:25.17 | 4:56.03 | 118892 | 141094
7 | 31:21.20 | 5:03.60 | 141095 | 163879
8 | 36:25.05 | 2:27.65 | 163880 | 174969
9 | 38:52.70 | 4:18.07 | 174970 | 194326
10 | 43:11.02 | 4:22.58 | 194327 | 214034
11 | 47:33.60 | 4:37.30 | 214035 | 234839
12 | 52:11.15 | 5:42.10 | 234840 | 260499
13 | 57:53.25 | 4:16.12 | 260500 | 279711
14 | 62:09.37 | 5:44.03 | 279712 | 305514
15 | 67:53.40 | 3:57.55 | 305515 | 323344
16 | 71:51.20 | 4:48.60 | 323345 | 345004


Track 1

Filename C:\Exact Audio Copy\Jackson Browne\The Best of Jackson Browne\01. Doctor My Eyes.wav

Pre-gap length 0:00:02.00

Peak level 100.0 %
Extraction speed 3.9 X
Track quality 100.0 %
Test CRC 3D9D7B11
Copy CRC 3D9D7B11
Accurately ripped (confidence 12) [33300DC7] (AR v2)
Copy OK

Track 2

Filename C:\Exact Audio Copy\Jackson Browne\The Best of Jackson Browne\02. These Days.wav

Pre-gap length 0:00:00.22

Peak level 100.0 %
Extraction speed 4.6 X
Track quality 100.0 %
Test CRC 173C3870
Copy CRC 173C3870
Accurately ripped (confidence 12) [6A7DBE78] (AR v2)
Copy OK

Track 3

Filename C:\Exact Audio Copy\Jackson Browne\The Best of Jackson Browne\03. Fountain Of Sorrow.wav

Pre-gap length 0:00:00.22

Peak level 100.0 %
Extraction speed 5.0 X
Track quality 100.0 %
Test CRC 262F9659
Copy CRC 262F9659
Accurately ripped (confidence 13) [9CBE5557] (AR v2)
Copy OK

Track 4

Filename C:\Exact Audio Copy\Jackson Browne\The Best of Jackson Browne\04. Late For The Sky.wav

Pre-gap length 0:00:00.65

Peak level 100.0 %
Extraction speed 5.5 X
Track quality 100.0 %
Test CRC A4C20442
Copy CRC A4C20442
Accurately ripped (confidence 13) [58A5D902] (AR v2)
Copy OK

Track 5

Filename C:\Exact Audio Copy\Jackson Browne\The Best of Jackson Browne\05. The Pretender.wav

Pre-gap length 0:00:00.42

Peak level 100.0 %
Extraction speed 6.1 X
Track quality 100.0 %
Test CRC 30C701AC
Copy CRC 30C701AC
Accurately ripped (confidence 13) [573F9A44] (AR v2)
Copy OK

Track 6

Filename C:\Exact Audio Copy\Jackson Browne\The Best of Jackson Browne\06. Running On Empty.wav

Pre-gap length 0:00:00.29

Peak level 100.0 %
Extraction speed 6.3 X
Track quality 99.9 %
Test CRC 14697C5E
Copy CRC 14697C5E
Accurately ripped (confidence 13) [526932C4] (AR v2)
Copy OK

Track 7

Filename C:\Exact Audio Copy\Jackson Browne\The Best of Jackson Browne\07. The Load Out.wav

Pre-gap length 0:00:00.47

Peak level 100.0 %
Extraction speed 6.8 X
Track quality 100.0 %
Test CRC 32908BC9
Copy CRC 32908BC9
Accurately ripped (confidence 13) [FB26F851] (AR v2)
Copy OK

Track 8

Filename C:\Exact Audio Copy\Jackson Browne\The Best of Jackson Browne\08. Stay.wav

Pre-gap length 0:00:00.02

Peak level 100.0 %
Extraction speed 6.6 X
Track quality 99.8 %
Test CRC F06FE194
Copy CRC F06FE194
Accurately ripped (confidence 12) [F898E7B6] (AR v2)
Copy OK

Track 9

Filename C:\Exact Audio Copy\Jackson Browne\The Best of Jackson Browne\09. Call It A Loan.wav

Pre-gap length 0:00:00.62

Peak level 100.0 %
Extraction speed 7.0 X
Track quality 99.9 %
Test CRC 63F9C453
Copy CRC 63F9C453
Accurately ripped (confidence 13) [4EA9943F] (AR v2)
Copy OK

Track 10

Filename C:\Exact Audio Copy\Jackson Browne\The Best of Jackson Browne\10. Somebody's Baby.wav

Pre-gap length 0:00:00.29

Peak level 100.0 %
Extraction speed 7.3 X
Track quality 100.0 %
Test CRC 4AB819F7
Copy CRC 4AB819F7
Accurately ripped (confidence 13) [534215D0] (AR v2)
Copy OK

Track 11

Filename C:\Exact Audio Copy\Jackson Browne\The Best of Jackson Browne\11. Tender Is The Night.wav

Pre-gap length 0:00:00.15

Peak level 100.0 %
Extraction speed 7.6 X
Track quality 100.0 %
Test CRC F6C14FAC
Copy CRC F6C14FAC
Accurately ripped (confidence 13) [DC0A3698] (AR v2)
Copy OK

Track 12

Filename C:\Exact Audio Copy\Jackson Browne\The Best of Jackson Browne\12. In The Shape Of A Heart.wav

Pre-gap length 0:00:00.27

Peak level 100.0 %
Extraction speed 7.9 X
Track quality 100.0 %
Test CRC F9835810
Copy CRC F9835810
Accurately ripped (confidence 12) [839E2238] (AR v2)
Copy OK

Track 13

Filename C:\Exact Audio Copy\Jackson Browne\The Best of Jackson Browne\13. Lives In The Balance.wav

Pre-gap length 0:00:00.37

Peak level 100.0 %
Extraction speed 8.0 X
Track quality 100.0 %
Test CRC 97A93D8F
Copy CRC 97A93D8F
Accurately ripped (confidence 13) [48773F0E] (AR v2)
Copy OK

Track 14

Filename C:\Exact Audio Copy\Jackson Browne\The Best of Jackson Browne\14. The Barricades Of Heaven.wav

Pre-gap length 0:00:00.42

Peak level 100.0 %
Extraction speed 8.5 X
Track quality 100.0 %
Test CRC 7AE3E53D
Copy CRC 7AE3E53D
Accurately ripped (confidence 12) [27F7C69F] (AR v2)
Copy OK

Track 15

Filename C:\Exact Audio Copy\Jackson Browne\The Best of Jackson Browne\15. The Rebel Jesus.wav

Pre-gap length 0:00:00.22

Peak level 100.0 %
Extraction speed 8.4 X
Track quality 99.9 %
Test CRC 578A60DC
Copy CRC 578A60DC
Accurately ripped (confidence 12) [6887C2B9] (AR v2)
Copy OK

Track 16

Filename C:\Exact Audio Copy\Jackson Browne\The Best of Jackson Browne\16. The Next Voice You Hear.wav

Pre-gap length 0:00:00.37

Peak level 100.0 %
Extraction speed 9.1 X
Track quality 100.0 %
Test CRC 1431AAF4
Copy CRC 1431AAF4
Accurately ripped (confidence 12) [2BC8FB07] (AR v2)
Copy OK


All tracks accurately ripped

No errors occurred

End of status report

–– CUETools DB Plugin V2.1.6

[CTDB TOCID: t4W8fUrvNG0FrRIKhLTjZrw.mdE-] found
Submit result: t4W8fUrvNG0FrRIKhLTjZrw.mdE- has been confirmed
Track | CTDB Status
1 | (25/25) Accurately ripped
2 | (25/25) Accurately ripped
3 | (25/25) Accurately ripped
4 | (25/25) Accurately ripped
5 | (25/25) Accurately ripped
6 | (25/25) Accurately ripped
7 | (24/25) Accurately ripped
8 | (25/25) Accurately ripped
9 | (25/25) Accurately ripped
10 | (25/25) Accurately ripped
11 | (25/25) Accurately ripped
12 | (24/25) Accurately ripped
13 | (25/25) Accurately ripped
14 | (25/25) Accurately ripped
15 | (25/25) Accurately ripped
16 | (21/25) Accurately ripped

[CUETools log; Date: 09.06.2019 22:26:36; Version: 2.1.4]
[CTDB TOCID: t4W8fUrvNG0FrRIKhLTjZrw.mdE-] found.
Track | CTDB Status
1 | (27/27) Accurately ripped
2 | (27/27) Accurately ripped
3 | (27/27) Accurately ripped
4 | (27/27) Accurately ripped
5 | (27/27) Accurately ripped
6 | (27/27) Accurately ripped
7 | (26/27) Accurately ripped
8 | (27/27) Accurately ripped
9 | (27/27) Accurately ripped
10 | (27/27) Accurately ripped
11 | (27/27) Accurately ripped
12 | (26/27) Accurately ripped
13 | (27/27) Accurately ripped
14 | (27/27) Accurately ripped
15 | (27/27) Accurately ripped
16 | (23/27) Accurately ripped
[AccurateRip ID: 002d4408-021d99b6-e711f810] found.
Track [ CRC | V2 ] Status
01 [724d2bce|33300dc7] (08+13/21) Accurately ripped
02 [66b028f3|6a7dbe78] (08+13/21) Accurately ripped
03 [77d82ac7|9cbe5557] (07+14/21) Accurately ripped
04 [9adb5de2|58a5d902] (07+14/21) Accurately ripped
05 [182ead41|573f9a44] (08+14/22) Accurately ripped
06 [576962ae|526932c4] (08+14/22) Accurately ripped
07 [a8eac37e|fb26f851] (07+14/21) Accurately ripped
08 [931db936|f898e7b6] (07+13/20) Accurately ripped
09 [29dd4bc3|4ea9943f] (07+14/21) Accurately ripped
10 [87ece5d8|534215d0] (08+14/22) Accurately ripped
11 [dec63d88|dc0a3698] (07+14/21) Accurately ripped
12 [45f0ef7d|839e2238] (08+13/21) Accurately ripped
13 [0f5bd024|48773f0e] (08+14/22) Accurately ripped
14 [913488cc|27f7c69f] (07+13/20) Accurately ripped
15 [fc81e647|6887c2b9] (07+13/20) Accurately ripped
16 [f2c88a18|2bc8fb07] (07+13/20) Accurately ripped

Track Peak [ CRC32 ] [W/O NULL] [ LOG ]
– 100,0 [FB05C5B8] [56AC8EF6]
01 100,0 [3D9D7B11] [E2A4D943] CRC32
02 100,0 [173C3870] [F364749A] CRC32
03 100,0 [262F9659] [4151DC9F] CRC32
04 100,0 [A4C20442] [0C1D0D29] CRC32
05 100,0 [30C701AC] [9EC17A57] CRC32
06 100,0 [14697C5E] [2DD0AFB4] CRC32
07 100,0 [32908BC9] [96FAE9E2] CRC32
08 100,0 [F06FE194] [45827F20] CRC32
09 100,0 [63F9C453] [3B38EFE3] CRC32
10 100,0 [4AB819F7] [B29F792C] CRC32
11 100,0 [F6C14FAC] [31204B88] CRC32
12 100,0 [F9835810] [C190C3D1] CRC32
13 100,0 [97A93D8F] [7915B3BE] CRC32
14 100,0 [7AE3E53D] [8F1A23F5] CRC32
15 100,0 [578A60DC] [59AADF82] CRC32
16 100,0 [1431AAF4] [16421D2A] CRC32

foobar2000 1.2 / Dynamic Range Meter 1.1.1
log date: 2019-06-10 00:48:16

––––––––––––––––––––––––––––––––––––––––
Analyzed: Jackson Browne / The Best Of Jackson Browne
––––––––––––––––––––––––––––––––––––––––

DR Peak RMS Duration Track
––––––––––––––––––––––––––––––––––––––––
DR9 0.00 dB -11.18 dB 3:20 01-Doctor My Eyes
DR10 0.00 dB -12.68 dB 4:40 02-These Days
DR10 0.00 dB -13.10 dB 6:53 03-Fountain Of Sorrow
DR9 0.00 dB -11.86 dB 5:38 04-Late For The Sky
DR9 0.00 dB -12.24 dB 5:53 05-The Pretender
DR9 0.00 dB -10.16 dB 4:56 06-Running On Empty
DR11 0.00 dB -15.38 dB 5:04 07-The Load Out
DR10 0.00 dB -12.27 dB 2:28 08-Stay
DR12 0.00 dB -14.69 dB 4:18 09-Call It A Loan
DR10 0.00 dB -11.03 dB 4:23 10-Somebody's Baby
DR10 0.00 dB -11.72 dB 4:37 11-Tender Is The Night
DR9 0.00 dB -11.47 dB 5:42 12-In The Shape Of A Heart
DR10 0.00 dB -12.93 dB 4:16 13-Lives In The Balance
DR9 0.00 dB -11.58 dB 5:44 14-The Barricades Of Heaven
DR11 0.00 dB -13.57 dB 3:58 15-The Rebel Jesus
DR9 0.00 dB -10.19 dB 4:49 16-The Next Voice You Hear
––––––––––––––––––––––––––––––––––––––––

Number of tracks: 16
Official DR value: DR10

Samplerate: 44100 Hz
Channels: 2
Bits per sample: 16
Bitrate: 840 kbps
Codec: FLAC
================================================================================

Jackson Browne - The Next Voice You Hear: The Best of Jackson Browne (1997)

All thanks to original releaser

More interesting music in My Blog