Tags
Language
Tags

Jakub Józef Orliński, Maxim Emelyanychev, Il Pomo d'Oro - Facce d'Amore (2019)

Posted By: ArlegZ
Jakub Józef Orliński, Maxim Emelyanychev, Il Pomo d'Oro - Facce d'Amore (2019)

Jakub Józef Orliński, Maxim Emelyanychev, Il Pomo d'Oro - Facce d'Amore (2019)
EAC | FLAC | Image (Cue & Log) ~ 422 Mb | Total time: 76:26 | Scans included
Classical | Label: Erato | 9029542338 | Recorded: 2019

Facce d’amore, ‘Faces of love’ follows Jakub Józef Orliński’s first solo album, Anima Sacra, which moved Gramophone magazine to announce that “This is a voice with a big future.” It brings a switch from the sacred to the personal and passionate. As the Polish-born, New York-trained countertenor says, the programme – which includes eight world premiere recordings – comprises “operatic arias that tell a story, showing a musical picture of a male lover in the baroque era – not only the positive side, like joyful or reciprocated love, but also anger or even madness.” Spanning some 85 years of the baroque period, the arias on Facce d’amore are by Handel, Cavalli, Alessandro Scarlatti, Bononcini, Conti, Hasse, Orlandini, Predieri and Matteis. Orliński is again partnered by the instrumentalists of Il Pomo d’Oro and their Principal Conductor Maxim Emelyanychev.

Performer:
Jakub Józef Orliński, countertenor
Il Pomo d'Oro
Maxim Emelyanychev, harpsichord & conductor

Track List:
Francesco Cavalli (1602-1672)
01. La Calisto (Act II, Scene 1). Recitativo & Aria: Erme e solinghe cime … Lucidissima face (Endimione)
Giovanni Antonio Boretti (1638-1672)
02. Eliogabalo (Act III, Scene 5). Aria: Chi scherza con Amor (Eliogabalo)
Claudio Cesare (Act II, Scene 1)
03. Sinfonia
04. Aria: Crudo amor, non hai pietà (Claudio)
Giovanni Battista Bononcini (1670-1747)
05. La Nemica d'Amore fatta amante. Sinfonia
06. La costanza non gradita nel doppio amore d'Aminta. Aria: Infelice mia
Alessandro Scarlatti (1660-1725)
07. Pirro e Demetrio (Act II, Scene 10). Aria: Fra gl'assalti di Cupido (Pirro)
George Frideric Handel (1685-1759)
Agrippina, HWV 6 (Act II, Scene 5)
08. Accompagnato: Otton qual portentoso fulmine (Ottone)
09. Aria: Voi che udite (Ottone)
Giuseppe Maria Orlandini (1676-1760) / Johann Mattheson (1681-1764)
10. Nerone (Act I, Scena 3). Aria: Che m'ami ti prega (Nerone)
George Frideric Handel
11. Amadigi di Gaula, HWV 11 (Act II, Scena 5). Aria: Pena tiranna (Dardano)
12. Muzio Scevola, HWV 13 (Act III, Scena 7). Aria: Spera, che tra le care gioie (Muzio)
13. Orlando, HWV 31 (Act II, Scena 11). Accompagnato & Aria: Ah stigie larve! … Vaghe pupille (Orlando)
Luca Antonio Predieri (1688-1767)
14. Scipione il giovane (Act III, Scena 4). Aria: Dovrian quest'occhi piangere (Scipione)
Nicola Matteis (c.1670-after 1713)
15. Ballo dei Bagatellieri
Francesco Bartolomeo Conti (1681/2-1732)
16. Don Chisciotte in Sierra Morena (Act IV, Scena 6). Aria: Odio, vendetta, amore (Fernando)
Luca Antonio Predieri
17. Scipione il giovane (Act I, Scene 12). Aria: Finche salvo è l'amor suo (Scipione)
Johann Adolf Hasse (1699-1783)
18. Orfeo. Aria: Sempre a si vaghi rai (Orfeo)


Exact Audio Copy V1.5 from 20. February 2020

EAC extraction logfile from 1. December 2020, 22:10

Jakub Józef Orliński, Il Pomo d’Oro, Maxim Emelyanychev / Facce d’Amore

Used drive : PIONEER DVD-RW DVR-218L Adapter: 1 ID: 0

Read mode : Secure
Utilize accurate stream : Yes
Defeat audio cache : Yes
Make use of C2 pointers : No

Read offset correction : 6
Overread into Lead-In and Lead-Out : No
Fill up missing offset samples with silence : Yes
Delete leading and trailing silent blocks : No
Null samples used in CRC calculations : Yes
Used interface : Native Win32 interface for Win NT & 2000

Used output format : User Defined Encoder
Selected bitrate : 128 kBit/s
Quality : High
Add ID3 tag : No
Command line compressor : C:\Program Files\Exact Audio Copy\Flac\flac.exe
Additional command line options : -V -8 -T "Date=%year%" -T "Genre=%genre%" %source%


TOC of the extracted CD

Track | Start | Length | Start sector | End sector
––––––––––––––––––––––––––––-
1 | 0:00.00 | 3:39.01 | 0 | 16425
2 | 3:39.01 | 2:57.54 | 16426 | 29754
3 | 6:36.55 | 1:04.20 | 29755 | 34574
4 | 7:41.00 | 1:17.29 | 34575 | 40378
5 | 8:58.29 | 3:14.52 | 40379 | 54980
6 | 12:13.06 | 5:17.21 | 54981 | 78776
7 | 17:30.27 | 2:04.67 | 78777 | 88143
8 | 19:35.19 | 1:03.05 | 88144 | 92873
9 | 20:38.24 | 4:51.45 | 92874 | 114743
10 | 25:29.69 | 4:32.57 | 114744 | 135200
11 | 30:02.51 | 5:40.70 | 135201 | 160770
12 | 35:43.46 | 3:58.13 | 160771 | 178633
13 | 39:41.59 | 7:20.63 | 178634 | 211696
14 | 47:02.47 | 4:37.28 | 211697 | 232499
15 | 51:40.00 | 7:10.37 | 232500 | 264786
16 | 58:50.37 | 4:09.71 | 264787 | 283532
17 | 63:00.33 | 6:20.17 | 283533 | 312049
18 | 69:20.50 | 7:14.56 | 312050 | 344655


Range status and errors

Selected range

Filename C:\ArlegZ\Jakub Jozef Orlinski - Facce d’Amore.wav

Peak level 92.1 %
Extraction speed 2.1 X
Range quality 100.0 %
Test CRC E7AB4B85
Copy CRC E7AB4B85
Copy OK

No errors occurred


AccurateRip summary

Track 1 not present in database
Track 2 not present in database
Track 3 not present in database
Track 4 not present in database
Track 5 not present in database
Track 6 not present in database
Track 7 not present in database
Track 8 not present in database
Track 9 not present in database
Track 10 not present in database
Track 11 not present in database
Track 12 not present in database
Track 13 not present in database
Track 14 not present in database
Track 15 not present in database
Track 16 not present in database
Track 17 not present in database
Track 18 not present in database

None of the tracks are present in the AccurateRip database

End of status report

–– CUETools DB Plugin V2.1.6

[CTDB TOCID: 1HKHa.MUficyR.buObgY2Asl1Os-] found
Submit result: 1HKHa.MUficyR.buObgY2Asl1Os- has been confirmed
Track | CTDB Status
1 | (42/42) Accurately ripped
2 | (42/42) Accurately ripped
3 | (42/42) Accurately ripped
4 | (42/42) Accurately ripped
5 | (42/42) Accurately ripped
6 | (42/42) Accurately ripped
7 | (42/42) Accurately ripped
8 | (42/42) Accurately ripped
9 | (42/42) Accurately ripped
10 | (42/42) Accurately ripped
11 | (42/42) Accurately ripped
12 | (42/42) Accurately ripped
13 | (42/42) Accurately ripped
14 | (42/42) Accurately ripped
15 | (42/42) Accurately ripped
16 | (42/42) Accurately ripped
17 | (42/42) Accurately ripped
18 | (42/42) Accurately ripped


==== Log checksum 874CBC96DC944F750A37D1F057696A1A12E7227B1E5A3747BF743454BF66BF97 ====

Jakub Józef Orliński, Maxim Emelyanychev, Il Pomo d'Oro - Facce d'Amore (2019)