Tags
Language
Tags

Jamaaladeen Tacuma & Uwe Kropinski - Zwei (2009) {Jazzwerkstatt}

Posted By: tiburon
Jamaaladeen Tacuma & Uwe Kropinski - Zwei (2009) {Jazzwerkstatt}

Jamaaladeen Tacuma & Uwe Kropinski - Zwei (2009) {Jazzwerkstatt}
EAC 0.99pb5 | FLAC tracks level 8 | Log+M3U | Full Scans 150dpi | 261MB + 5% Recovery
MP3 CBR 320 Kbps | 135MB + 5% Recovery
Genre: Free Funk, Fusion

Jamaaladeen Tacuma (born Rudy McDaniel; June 11, 1956) is an American free jazz bassist born in Hempstead, New York. He was a bandleader on the Gramavision label and worked with Ornette Coleman during the 1970s and 1980s, mostly in Coleman's Prime Time band. Tacuma showcased a unique style of avant-garde jazz on Coleman's 1982 album Of Human Feelings, and became widely viewed as one of the most distinctive bassists since Jaco Pastorius. He formed his own group, and recorded albums that incorporated commercially accessible melodies while retaining Prime Time's elaborate harmonies. His 1988 album Jukebox was nominated for a Grammy Award in 1989.
Track List
01. Relax (Tacuma) - 0:37
02. Lydian Summer (Kropinski) - 5:55
03. From F to F and Back (Kropinski) - 6:15
04. Chromatic Driving (Kropinski) - 4:09
05. Dorian Spring (Kropinski) - 3:26
06. Plastic Bag (Kropinski) - 5:13
07. Al Hamdulillah (Tacuma) - 6:28
08. Na Und (Kropinski) - 3:27
09. Some Way Home (Kropinski) - 4:42
10. Tana (Kropinski) - 4:19
11. Shake Me (Kropinski) - 2:42
12. Showstopper (Tacuma) - 5:23
13. Quiet Time (Tacuma) - 2:20
14. Berliner Luft (Tacuma-Kropinski) - 3:44

musicians
Jamaaladeen Tacuma - bass guitar
Uwe Kropinski - acoustic guitar, drums, shaker, vocals

Produced by Jamaaladeen Tacuma


Exact Audio Copy V0.99 prebeta 5 from 4. May 2009

EAC extraction logfile from 31. January 2010, 13:20

Unknown Artist / Unknown Title

Used drive : PHILIPS PBDV1640P Adapter: 1 ID: 0

Read mode : Secure
Utilize accurate stream : Yes
Defeat audio cache : No
Make use of C2 pointers : No

Combined read/write offset correction : 0
Overread into Lead-In and Lead-Out : No
Fill up missing offset samples with silence : Yes
Delete leading and trailing silent blocks : No
Null samples used in CRC calculations : No
Used interface : Native Win32 interface for Win NT & 2000
Gap handling : Appended to previous track

Used output format : Internal WAV Routines
Sample format : 44.100 Hz; 16 Bit; Stereo


TOC of the extracted CD

Track | Start | Length | Start sector | End sector
––––––––––––––––––––––––––––-
1 | 0:00.00 | 0:36.68 | 0 | 2767
2 | 0:36.68 | 5:54.38 | 2768 | 29355
3 | 6:31.31 | 6:14.62 | 29356 | 57467
4 | 12:46.18 | 4:08.56 | 57468 | 76123
5 | 16:54.74 | 3:26.22 | 76124 | 91595
6 | 20:21.21 | 5:12.56 | 91596 | 115051
7 | 25:34.02 | 6:28.12 | 115052 | 144163
8 | 32:02.14 | 3:27.35 | 144164 | 159723
9 | 35:29.49 | 4:42.26 | 159724 | 180899
10 | 40:12.00 | 4:18.46 | 180900 | 200295
11 | 44:30.46 | 2:42.06 | 200296 | 212451
12 | 47:12.52 | 5:23.19 | 212452 | 236695
13 | 52:35.71 | 2:20.20 | 236696 | 247215
14 | 54:56.16 | 3:43.59 | 247216 | 263999


Track 1

Filename C:\Dokumente und Einstellungen\Besitzer\Desktop\temp\01-Track01.wav

Pre-gap length 0:00:02.00

Peak level 95.4 %
Track quality 100.0 %
Test CRC 05D74EC4
Copy CRC 05D74EC4
Copy OK

Track 2

Filename C:\Dokumente und Einstellungen\Besitzer\Desktop\temp\02-Track02.wav

Pre-gap length 0:00:07.65

Peak level 95.1 %
Track quality 100.0 %
Test CRC 7F7CF9EA
Copy CRC 7F7CF9EA
Copy OK

Track 3

Filename C:\Dokumente und Einstellungen\Besitzer\Desktop\temp\03-Track03.wav

Pre-gap length 0:00:07.65

Peak level 98.8 %
Track quality 100.0 %
Test CRC 3A4CD8EF
Copy CRC 3A4CD8EF
Copy OK

Track 4

Filename C:\Dokumente und Einstellungen\Besitzer\Desktop\temp\04-Track04.wav

Pre-gap length 0:00:07.65

Peak level 86.2 %
Track quality 99.9 %
Test CRC C13729E9
Copy CRC C13729E9
Copy OK

Track 5

Filename C:\Dokumente und Einstellungen\Besitzer\Desktop\temp\05-Track05.wav

Pre-gap length 0:00:07.65

Peak level 96.5 %
Track quality 100.0 %
Test CRC 3170761F
Copy CRC 3170761F
Copy OK

Track 6

Filename C:\Dokumente und Einstellungen\Besitzer\Desktop\temp\06-Track06.wav

Pre-gap length 0:00:07.65

Peak level 96.3 %
Track quality 100.0 %
Test CRC CF0EA42F
Copy CRC CF0EA42F
Copy OK

Track 7

Filename C:\Dokumente und Einstellungen\Besitzer\Desktop\temp\07-Track07.wav

Pre-gap length 0:00:07.65

Peak level 88.3 %
Track quality 100.0 %
Test CRC 022641AF
Copy CRC 022641AF
Copy OK

Track 8

Filename C:\Dokumente und Einstellungen\Besitzer\Desktop\temp\08-Track08.wav

Pre-gap length 0:00:07.65

Peak level 93.0 %
Track quality 100.0 %
Test CRC D84D4C91
Copy CRC D84D4C91
Copy OK

Track 9

Filename C:\Dokumente und Einstellungen\Besitzer\Desktop\temp\09-Track09.wav

Pre-gap length 0:00:07.65

Peak level 75.1 %
Track quality 100.0 %
Test CRC 6DCF8886
Copy CRC 6DCF8886
Copy OK

Track 10

Filename C:\Dokumente und Einstellungen\Besitzer\Desktop\temp\10-Track10.wav

Pre-gap length 0:00:07.65

Peak level 95.0 %
Track quality 100.0 %
Test CRC 56ABAB40
Copy CRC 56ABAB40
Copy OK

Track 11

Filename C:\Dokumente und Einstellungen\Besitzer\Desktop\temp\11-Track11.wav

Pre-gap length 0:00:07.65

Peak level 93.7 %
Track quality 100.0 %
Test CRC 3F8EFCF3
Copy CRC 3F8EFCF3
Copy OK

Track 12

Filename C:\Dokumente und Einstellungen\Besitzer\Desktop\temp\12-Track12.wav

Pre-gap length 0:00:07.65

Peak level 83.9 %
Track quality 100.0 %
Test CRC 550FEB26
Copy CRC 550FEB26
Copy OK

Track 13

Filename C:\Dokumente und Einstellungen\Besitzer\Desktop\temp\13-Track13.wav

Pre-gap length 0:00:07.65

Peak level 82.9 %
Track quality 100.0 %
Test CRC 576EAD78
Copy CRC 576EAD78
Copy OK

Track 14

Filename C:\Dokumente und Einstellungen\Besitzer\Desktop\temp\14-Track14.wav

Pre-gap length 0:00:07.65

Peak level 84.9 %
Track quality 99.9 %
Test CRC 752BCA70
Copy CRC 752BCA70
Copy OK

No errors occurred

End of status report

Jamaaladeen Tacuma & Uwe Kropinski - Zwei (2009) {Jazzwerkstatt}
Jamaaladeen Tacuma & Uwe Kropinski - Zwei (2009) {Jazzwerkstatt}


Thanks to the original ripper