Subcategories

James Ehnes, Andrew Armstrong - Ludwig van Beethoven: Violin Sonatas Nos. 6 & 9 'Kreutzer' (2017)

Posted By: Designol
James Ehnes, Andrew Armstrong - Ludwig van Beethoven: Violin Sonatas Nos. 6 & 9 'Kreutzer' (2017)

Ludwig van Beethoven: Violin Sonatas Nos. 6 & 9 'Kreutzer' (2017)
James Ehnes (violin), Andrew Armstrong (piano)

EAC | FLAC | Image (Cue&Log) ~ 244 Mb | Artwork included
Classical | Label: Onyx | # ONYX4170 | 01:01:55

The duo of old friends James Ehnes and Andrew Armstrong has established itself as one of the most exciting of our times. Their albums of violin sonatas by Franck & Strauss, and Debussy, Elgar & Respighi have been praised by critics worldwide. For this new album they turn to Beethoven and two A major sonatas with very different moods. The 9th, ‘Kreutzer’ sonata, is a huge work, heroic and turbulent in character – a kind of concerto for violin and piano. It is middle period Beethoven at its most dramatic. By contrast, the 6th sonata is a serene, introspective work of great beauty which has tended to be overlooked by its more outward-looking siblings. The intimacy of this sonata – especially the slow movement - is all the more surprising as the original finale was removed by the composer, to become the finale of the ‘Kreutzer’. Beethoven wrote the gentle variations to conclude the 6th sonata.

James Ehnes, Andrew Armstrong - Ludwig van Beethoven: Violin Sonatas Nos. 6 & 9 'Kreutzer' (2017)

This is James Ehnes’s first disc of Beethoven sonatas and I very much hope it will herald a complete survey. He is joined by his regular partner-in-crime, Andrew Armstrong, and their long familiarity pays real dividends. The coupling of the Kreutzer with Op 30 No 1 is also musically astute, as the latter’s original Presto finale ended up as the concluding movement of the Kreutzer.

They programme the Kreutzer first and its opening movement has that essential Bachian purity, which gives way to a Presto full of strength and energy, yet finesse and suppleness too. Silences are used to compelling effect, and the pizzicatos at 6'31" (track 1) are sufficiently present without knocking you to the back of the room. The closing moments too are judged to a nicety, taking the dynamic and tempo right down before the final explosion.

They are a tad slower in the Andante theme than Dumay and Pires or Faust and Melnikov but as soon as the variations begin their reading takes off. Ibragimova and Tiberghien, caught live, are also relatively spacious but so highly coloured that they’re compelling indeed. Ehnes and Armstrong are stunningly responsive in the finale, with a sense of propulsion, yet without overlooking its moments of delicacy.

Op 30 No 1 may share a key with the Kreutzer but otherwise they are worlds apart. The opening, which has to sound almost nonchalant, can sound forced; not here, though, where everything unfolds with complete inevitability. Faust and Melnikov play up Beethoven’s juxtapositions of dynamics and moods even more, but choice is down to taste, for both are masterly readings. Ehnes and Armstrong are ravishing in the slow movement, truly molto espressivo, while a sense of playfulness is irresistibly apparent in every bar of the finale, setting the seal on a compelling addition to Ehnes and Armstrong’s remarkable discography.

Review by Harriet Smith, Gramophone

Violinist James Ehnes and pianist Andrew Armstrong play together with an easy spark and suppleness that only old friends really can. In the past they’ve done excellent things with Franck, Strauss, Debussy and Elgar; now they turn to Beethoven with the same combination of light touch and searing focus. There’s a clarity of ideas that means they never have to overstate – take the initial phrase of the Kreutzer Sonata, the impeccably eloquent way the opening chord clouds from radiance to shade so decisively. Flashes of white heat in that sonata subside into a graceful reading of the Sixth. For some listeners, the featherweight diction won’t be brawny or volatile enough for mid-period Beethoven, but it would be wrong to mistake cleanliness for lack of emotional heft. The uncluttered, conversational generosity of this duo speaks volumes.

Review by Kate Molleson, The Guardian

James Ehnes, Andrew Armstrong - Ludwig van Beethoven: Violin Sonatas Nos. 6 & 9 'Kreutzer' (2017)



James Ehnes, Andrew Armstrong - Ludwig van Beethoven: Violin Sonatas Nos. 6 & 9 'Kreutzer' (2017)




Tracklist:

Violin Sonata No.9 in A major, Op.47 'Kreutzer'
01. I. Adagio sostenuto (13:43)
02. II. Andante con variazioni (16:07)
03. III. Finale: Presto (8:30)

Violin Sonata No.6 in A major, Op.30/1
04. I. Allegro (7:55)
05. II. Adagio molto espressivo (7:23)
06. III. Allegretto con variazioni (8:16)


Exact Audio Copy V1.1 from 23. June 2015

EAC extraction logfile from 3. July 2017, 21:30

James Ehnes, Andrew Armstrong / Beethoven - Violin Sonatas 6 & 9

Used drive : PLDS DVD-RW DU8A6SH Adapter: 1 ID: 0

Read mode : Secure
Utilize accurate stream : Yes
Defeat audio cache : Yes
Make use of C2 pointers : No

Read offset correction : 6
Overread into Lead-In and Lead-Out : No
Fill up missing offset samples with silence : Yes
Delete leading and trailing silent blocks : No
Null samples used in CRC calculations : Yes
Used interface : Native Win32 interface for Win NT & 2000

Used output format : User Defined Encoder
Selected bitrate : 128 kBit/s
Quality : High
Add ID3 tag : No
Command line compressor : C:\Program Files (x86)\Exact Audio Copy\Flac\flac.exe
Additional command line options : -V -8 -T "Date=%year%" -T "Genre=%genre%" %source%


TOC of the extracted CD

Track | Start | Length | Start sector | End sector
––––––––––––––––––––––––––––-
1 | 0:00.00 | 13:43.24 | 0 | 61748
2 | 13:43.24 | 16:07.25 | 61749 | 134298
3 | 29:50.49 | 8:30.32 | 134299 | 172580
4 | 38:21.06 | 7:54.40 | 172581 | 208170
5 | 46:15.46 | 7:22.72 | 208171 | 241392
6 | 53:38.43 | 8:16.14 | 241393 | 278606


Range status and errors

Selected range

Filename C:\temp\Beethoven - Violin Sonatas 6 & 9 - Ehnes, Armstrong\Beethoven - Violin Sonatas 6 & 9.wav

Peak level 99.9 %
Extraction speed 3.6 X
Range quality 99.9 %
Test CRC 5AA8620A
Copy CRC 5AA8620A
Copy OK

No errors occurred


AccurateRip summary

Track 1 not present in database
Track 2 not present in database
Track 3 not present in database
Track 4 not present in database
Track 5 not present in database
Track 6 not present in database

None of the tracks are present in the AccurateRip database

End of status report

==== Log checksum 4D278EEFDEB1C73E0E334A79A1D9884B61A4DD7658F340500255AEB7CD05036E ====

[CUETools log; Date: 23.03.2018 1:59:07; Version: 2.1.4]
[CTDB TOCID: Fg_wxIFgkxBlK5zlafCmAuGzq10-] found.
Track | CTDB Status
1 | (13/13) Accurately ripped
2 | (13/13) Accurately ripped
3 | (13/13) Accurately ripped
4 | (13/13) Accurately ripped
5 | (13/13) Accurately ripped
6 | (13/13) Accurately ripped
[AccurateRip ID: 0010bc60-00564e76-4a0e8206] found.
Track [ CRC | V2 ] Status
01 [0d1cd0e7|7007ac99] (0+7/7) Accurately ripped
02 [72ab2a9c|976eec86] (0+7/7) Accurately ripped
03 [108c5f31|a77344d9] (0+7/7) Accurately ripped
04 [ebe9475e|2e531fb6] (0+7/7) Accurately ripped
05 [6aa1490d|0fdbb30b] (0+7/7) Accurately ripped
06 [56043006|4987111a] (0+7/7) Accurately ripped

Track Peak [ CRC32 ] [W/O NULL] [ LOG ]
– 99,9 [5AA8620A] [6B56AC63] CRC32
01 99,9 [8E888C2F] [429F95A2]
02 52,9 [03EAFA56] [564BDF3D]
03 99,8 [4C10712E] [949EF549]
04 68,0 [62FE06A6] [89D46FDF]
05 47,2 [4655ABD2] [3AF8D2E1]
06 89,3 [10087D75] [8008D5FA]

foobar2000 1.2 / Dynamic Range Meter 1.1.1
log date: 2018-03-23 01:39:05

––––––––––––––––––––––––––––––––––––––––
Analyzed: James Ehnes, Andrew Armstrong / Beethoven - Violin Sonatas 6 & 9
––––––––––––––––––––––––––––––––––––––––

DR Peak RMS Duration Track
––––––––––––––––––––––––––––––––––––––––
DR15 -0.01 dB -18.92 dB 13:43 01-Violin Sonata No.9 in A major, Op.47 'Kreutzer' - I. Adagio sostenuto
DR16 -5.52 dB -25.71 dB 16:07 02-Violin Sonata No.9 in A major, Op.47 'Kreutzer' - II. Andante con variazioni
DR15 -0.01 dB -20.33 dB 8:30 03-Violin Sonata No.9 in A major, Op.47 'Kreutzer' - III. Finale: Presto
DR14 -3.35 dB -22.89 dB 7:55 04-Violin Sonata No.6 in A major, Op.30/1 - I. Allegro
DR14 -6.51 dB -26.85 dB 7:23 05-Violin Sonata No.6 in A major, Op.30/1 - II. Adagio molto espressivo
DR15 -0.98 dB -22.51 dB 8:16 06-Violin Sonata No.6 in A major, Op.30/1 - III. Allegretto con variazioni
––––––––––––––––––––––––––––––––––––––––

Number of tracks: 6
Official DR value: DR15

Samplerate: 44100 Hz
Channels: 2
Bits per sample: 16
Bitrate: 528 kbps
Codec: FLAC
================================================================================

James Ehnes, Andrew Armstrong - Ludwig van Beethoven: Violin Sonatas Nos. 6 & 9 'Kreutzer' (2017)

All thanks to original releaser - A-Z

More interesting music in My Blog