Tags
Language
Tags

James Taylor - New Moon Shine (1991)

Posted By:
James Taylor - New Moon Shine (1991)

James Taylor - New Moon Shine (1991)
EAC | FLAC | Tracks (Cue&Log) ~ 278 Mb | Mp3 (CBR320) ~ 110 Mb
Label: Columbia | # CK 46038 | Time: 00:47:56 | Scans ~ 83 Mb
Singer-Songwriter, Rock, Pop, Soft Rock, Folk Rock, Adult Contemporary

New Moon Shine is singer-songwriter James Taylor's 13th studio album, which was certified platinum. Released September 24, 1991, the album peaked the following month at number 37 on the Billboard 200 albums list. The album received generally good reviews; the New York Times's Stephen Holden observed that New Moon Shine "finds [Taylor] near the top of his form in songs like 'Slap Leather,' a playfully pungent rock-and-roll critique of social and environmental ills, and 'Copperline,' a nostalgic ballad remembering his North Carolina roots."

James Taylor produced a typical collection of familiar-sounding songs on New Moon Shine, his concerns ranging from romance to the life of the working man to political issues like war and civil rights on which he took the expected liberal positions. The album was written, played, and sung with typical craft and care, and was a worthy addition to Taylor's catalog. Taylor's reliability means that his records do not disappoint his faithful audience, but neither do they provide any revelations. New Moon Shine provided four Adult Contemporary chart entries in "Copperline," "(I've Got To) Stop Thinkin' 'Bout That," a cover of Sam Cooke's "Everybody Loves to Cha Cha Cha," and "Like Everyone She Knows," and the album went gold, staying in the charts more than nine months, a good showing for a record that essentially repeated previous efforts. (New Moon Shine was eventually certified platinum.)

Review by William Ruhlmann, Allmusic.com

Ol' Sweet Baby James is known for his gentle coo-ing about life's little joys and tragedies (he's seen fire *and* he's seen rain) and for surrounding himself with the best studio musicians money can buy. Steve Jordan and Steve Gadd on drums ensure the rhythm is solid and guitarist Danny Kortchmar and saxophonist Michael Brecker are top flight cats who keep things in place. Taylor himself is in fine form, penning an immediate audience favorite, "Copperline," and getting playful with Sam Cooke's hit, "Everybody Loves to Cha Cha Cha," which initially seems incongruous but over time makes sense as more blue shirt soul from Martha's Vineyard's favorite boy.

Rob O'Connor, Amazon.com Editorial Review

James Taylor at Allmusic
James Taylor at Wiki

Tracklist:

01. Copperline (4:23)
02. Down In The Hole (5:16)
03. (I've Got To) Stop Thinkin' 'Bout That (4:01)
04. Shed A Little LIght (3:53)
05. The Frozen Man (3:55)
06. Slap Leather (2:01)
07. Like Everyone She Knows (4:57)
08. One More Go Round (4:41)
09. Everbody Loves To Cha Cha Cha (3:38)
10. Native Son (3:50)
11. Oh Brother (4:25)
12. The Water Is Wide (3:01)


Exact Audio Copy V1.1 from 23. June 2015

EAC extraction logfile from 22. February 2019, 0:01

James Taylor / New Moon Shine

Used drive : HL-DT-STDVDRAM GH24NS90 Adapter: 1 ID: 0

Read mode : Secure
Utilize accurate stream : Yes
Defeat audio cache : No
Make use of C2 pointers : Yes

Read offset correction : 6
Overread into Lead-In and Lead-Out : No
Fill up missing offset samples with silence : Yes
Delete leading and trailing silent blocks : No
Null samples used in CRC calculations : Yes
Used interface : Native Win32 interface for Win NT & 2000
Gap handling : Appended to previous track

Used output format : User Defined Encoder
Selected bitrate : 1024 kBit/s
Quality : High
Add ID3 tag : No
Command line compressor : C:\Program Files (x86)\FLAC\flac.exe


TOC of the extracted CD

Track | Start | Length | Start sector | End sector
––––––––––––––––––––––––––––-
1 | 0:00.00 | 4:22.17 | 0 | 19666
2 | 4:22.17 | 5:15.55 | 19667 | 43346
3 | 9:37.72 | 4:00.63 | 43347 | 61409
4 | 13:38.60 | 3:52.25 | 61410 | 78834
5 | 17:31.10 | 3:54.27 | 78835 | 96411
6 | 21:25.37 | 2:00.23 | 96412 | 105434
7 | 23:25.60 | 4:56.47 | 105435 | 127681
8 | 28:22.32 | 4:40.73 | 127682 | 148754
9 | 33:03.30 | 3:37.55 | 148755 | 165084
10 | 36:41.10 | 3:49.17 | 165085 | 182276
11 | 40:30.27 | 4:24.73 | 182277 | 202149
12 | 44:55.25 | 3:00.37 | 202150 | 215686


Track 1

Filename C:\Exact Audio Copy\James Taylor\New Moon Shine\01. Copperline.wav

Pre-gap length 0:00:02.00

Peak level 100.0 %
Extraction speed 4.1 X
Track quality 99.9 %
Test CRC E051B413
Copy CRC E051B413
Accurately ripped (confidence 5) [ADA98003] (AR v2)
Copy OK

Track 2

Filename C:\Exact Audio Copy\James Taylor\New Moon Shine\02. Down In The Hole.wav

Pre-gap length 0:00:00.45

Peak level 100.0 %
Extraction speed 4.6 X
Track quality 100.0 %
Test CRC B07F1D49
Copy CRC B07F1D49
Accurately ripped (confidence 5) [DC4860DF] (AR v2)
Copy OK

Track 3

Filename C:\Exact Audio Copy\James Taylor\New Moon Shine\03. (I've Got To) Stop Thinkin' 'Bout That.wav

Pre-gap length 0:00:00.27

Peak level 100.0 %
Extraction speed 5.0 X
Track quality 100.0 %
Test CRC B28310FE
Copy CRC B28310FE
Accurately ripped (confidence 5) [4793B73B] (AR v2)
Copy OK

Track 4

Filename C:\Exact Audio Copy\James Taylor\New Moon Shine\04. Shed A Little LIght.wav

Pre-gap length 0:00:00.70

Peak level 100.0 %
Extraction speed 5.6 X
Track quality 100.0 %
Test CRC 287FB8A0
Copy CRC 287FB8A0
Accurately ripped (confidence 5) [D1BC3E4E] (AR v2)
Copy OK

Track 5

Filename C:\Exact Audio Copy\James Taylor\New Moon Shine\05. The Frozen Man.wav

Pre-gap length 0:00:01.00

Peak level 87.2 %
Extraction speed 5.9 X
Track quality 100.0 %
Test CRC 3FAC028C
Copy CRC 3FAC028C
Accurately ripped (confidence 5) [CB98C299] (AR v2)
Copy OK

Track 6

Filename C:\Exact Audio Copy\James Taylor\New Moon Shine\06. Slap Leather.wav

Peak level 100.0 %
Extraction speed 5.7 X
Track quality 100.0 %
Test CRC 81EC4D32
Copy CRC 81EC4D32
Accurately ripped (confidence 5) [3A69EE97] (AR v2)
Copy OK

Track 7

Filename C:\Exact Audio Copy\James Taylor\New Moon Shine\07. Like Everyone She Knows.wav

Pre-gap length 0:00:02.45

Peak level 100.0 %
Extraction speed 6.2 X
Track quality 100.0 %
Test CRC 0A918049
Copy CRC 0A918049
Accurately ripped (confidence 5) [52A78887] (AR v2)
Copy OK

Track 8

Filename C:\Exact Audio Copy\James Taylor\New Moon Shine\08. One More Go Round.wav

Pre-gap length 0:00:00.40

Peak level 100.0 %
Extraction speed 6.5 X
Track quality 100.0 %
Test CRC C3EB574C
Copy CRC C3EB574C
Accurately ripped (confidence 5) [6DAEC466] (AR v2)
Copy OK

Track 9

Filename C:\Exact Audio Copy\James Taylor\New Moon Shine\09. Everbody Loves To Cha Cha Cha.wav

Peak level 99.9 %
Extraction speed 7.0 X
Track quality 100.0 %
Test CRC 23D1B160
Copy CRC 23D1B160
Accurately ripped (confidence 5) [61B7F6C9] (AR v2)
Copy OK

Track 10

Filename C:\Exact Audio Copy\James Taylor\New Moon Shine\10. Native Son.wav

Pre-gap length 0:00:01.08

Peak level 100.0 %
Extraction speed 7.2 X
Track quality 100.0 %
Test CRC 1B2693FF
Copy CRC 1B2693FF
Accurately ripped (confidence 5) [BDD9AAC1] (AR v2)
Copy OK

Track 11

Filename C:\Exact Audio Copy\James Taylor\New Moon Shine\11. Oh Brother.wav

Pre-gap length 0:00:01.40

Peak level 100.0 %
Extraction speed 7.2 X
Track quality 100.0 %
Test CRC 6815B41A
Copy CRC 6815B41A
Accurately ripped (confidence 5) [FDF164C8] (AR v2)
Copy OK

Track 12

Filename C:\Exact Audio Copy\James Taylor\New Moon Shine\12. The Water Is Wide.wav

Pre-gap length 0:00:02.00

Peak level 72.2 %
Extraction speed 7.7 X
Track quality 100.0 %
Test CRC 9D28AE81
Copy CRC 9D28AE81
Accurately ripped (confidence 5) [8E6B18A4] (AR v2)
Copy OK


All tracks accurately ripped

No errors occurred

End of status report

–– CUETools DB Plugin V2.1.6

[CTDB TOCID: HX4qcZWVWkJz7jDL22YwLlMyx_s-] found
Submit result: HX4qcZWVWkJz7jDL22YwLlMyx_s- has been confirmed
Track | CTDB Status
1 | (81/82) Accurately ripped
2 | (81/82) Accurately ripped
3 | (81/82) Accurately ripped
4 | (82/82) Accurately ripped
5 | (82/82) Accurately ripped
6 | (82/82) Accurately ripped
7 | (82/82) Accurately ripped
8 | (82/82) Accurately ripped
9 | (82/82) Accurately ripped
10 | (82/82) Accurately ripped
11 | (82/82) Accurately ripped
12 | (81/82) Accurately ripped

[CUETools log; Date: 21.06.2021 0:01:13; Version: 2.1.7]
[CTDB TOCID: HX4qcZWVWkJz7jDL22YwLlMyx_s-] found.
Track | CTDB Status
1 | (142/143) Accurately ripped
2 | (142/143) Accurately ripped
3 | (142/143) Accurately ripped
4 | (143/143) Accurately ripped
5 | (143/143) Accurately ripped
6 | (143/143) Accurately ripped
7 | (143/143) Accurately ripped
8 | (142/143) Accurately ripped
9 | (142/143) Accurately ripped
10 | (143/143) Accurately ripped
11 | (143/143) Accurately ripped
12 | (142/143) Accurately ripped
[AccurateRip ID: 00161356-00cc08c3-a10b3b0c] found.
Track [ CRC | V2 ] Status
01 [be5da1d3|ada98003] (000+009/123) Accurately ripped
02 [8a15113c|dc4860df] (000+009/124) Accurately ripped
03 [00ddd3fd|4793b73b] (000+009/124) Accurately ripped
04 [1e92e36f|d1bc3e4e] (000+009/120) Accurately ripped
05 [29dfa0cc|cb98c299] (000+009/125) Accurately ripped
06 [90fa652f|3a69ee97] (000+009/123) Accurately ripped
07 [edd4b11d|52a78887] (000+009/121) Accurately ripped
08 [ab0ce27f|6daec466] (000+009/122) Accurately ripped
09 [eea0111e|61b7f6c9] (000+009/122) Accurately ripped
10 [3039e941|bdd9aac1] (000+009/122) Accurately ripped
11 [c52e740a|fdf164c8] (000+009/124) Accurately ripped
12 [e695b1e6|8e6b18a4] (000+009/121) Accurately ripped
Offsetted by -2017:
01 [16a17fd6] (004/123) Accurately ripped
02 [ec90125c] (004/124) Accurately ripped
03 [565f350e] (004/124) Accurately ripped
04 [b224d69e] (003/120) Accurately ripped
05 [076f2bce] (004/125) Accurately ripped
06 [4454d276] (004/123) Accurately ripped
07 [27415543] (003/121) Accurately ripped
08 [38c194a3] (004/122) Accurately ripped
09 [d06d2ee8] (003/122) Accurately ripped
10 [f6484797] (003/122) Accurately ripped
11 [fb049a20] (004/124) Accurately ripped
12 [73b96d75] (003/121) Accurately ripped
Offsetted by -1450:
01 [ab81efab] (004/123) Accurately ripped
02 [1c2c80ae] (004/124) Accurately ripped
03 [fa6ebf87] (004/124) Accurately ripped
04 [4a1e51a0] (004/120) Accurately ripped
05 [360200e1] (004/125) Accurately ripped
06 [029a1bf9] (004/123) Accurately ripped
07 [b8cf67d9] (004/121) Accurately ripped
08 [02079ae7] (004/122) Accurately ripped
09 [902b51ba] (004/122) Accurately ripped
10 [8a302fdd] (004/122) Accurately ripped
11 [bd0cd026] (004/124) Accurately ripped
12 [709d68da] (004/121) Accurately ripped
Offsetted by -1420:
01 [03f3a4f1] (011/123) Accurately ripped
02 [36d34d3a] (011/124) Accurately ripped
03 [997657c9] (012/124) Accurately ripped
04 [da8bb2cd] (010/120) Accurately ripped
05 [fb12f1d9] (012/125) Accurately ripped
06 [92346674] (012/123) Accurately ripped
07 [ad8c6ce5] (011/121) Accurately ripped
08 [46dce2a2] (010/122) Accurately ripped
09 [28125ac7] (012/122) Accurately ripped
10 [0935af49] (012/122) Accurately ripped
11 [3fddd712] (012/124) Accurately ripped
12 [c8adf48a] (012/121) Accurately ripped
Offsetted by -1412:
01 [2c30ce6c] (003/123) Accurately ripped
02 [71653f83] (003/124) Accurately ripped
03 [5d785e41] (003/124) Accurately ripped
04 [5123e5e6] (002/120) Accurately ripped
05 [7f3a6e86] (003/125) Accurately ripped
06 [ec1e472a] (002/123) Accurately ripped
07 [eecfe5b5] (002/121) Accurately ripped
08 [1d2da22c] (002/122) Accurately ripped
09 [302b4e4d] (002/122) Accurately ripped
10 [4d372699] (002/122) Accurately ripped
11 [73d15062] (003/124) Accurately ripped
12 [9b6df106] (002/121) Accurately ripped
Offsetted by -1371:
01 [4449b78b] (004/123) Accurately ripped
02 [805e7a9d] (005/124) Accurately ripped
03 [ea02bf68] (004/124) Accurately ripped
04 [98e334c3] (004/120) Accurately ripped
05 [e875b99b] (004/125) Accurately ripped
06 [1bf3c834] (004/123) Accurately ripped
07 [bd49b0df] (004/121) Accurately ripped
08 [a534b4bb] (004/122) Accurately ripped
09 [a46cfb78] (004/122) Accurately ripped
10 [e9beaa13] (004/122) Accurately ripped
11 [1e111e1c] (004/124) Accurately ripped
12 [2ea6889c] (005/121) Accurately ripped
Offsetted by -312:
01 [47d4dd95] (003/123) Accurately ripped
02 [ce99b342] (003/124) Accurately ripped
03 [248ed7b5] (003/124) Accurately ripped
04 [fcdf72ac] (003/120) Accurately ripped
05 [17b86157] (003/125) Accurately ripped
06 [6a570887] (003/123) Accurately ripped
07 [fc8d496d] (003/121) Accurately ripped
08 [97b1f4bd] (003/122) Accurately ripped
09 [b9caf660] (003/122) Accurately ripped
10 [d400bc11] (003/122) Accurately ripped
11 [db16f8da] (003/124) Accurately ripped
12 [b8e9fc95] (002/121) Accurately ripped
Offsetted by -9:
01 [0ca84428] (002/123) Accurately ripped
02 [510f9cee] (002/124) Accurately ripped
03 [845b8cb6] (002/124) Accurately ripped
04 [a0e59685] (002/120) Accurately ripped
05 [1c7ee889] (002/125) Accurately ripped
06 [b8ff7008] (002/123) Accurately ripped
07 [2468c933] (002/121) Accurately ripped
08 [fa6e3189] (002/122) Accurately ripped
09 [e2b95da6] (002/122) Accurately ripped
10 [a3b84307] (002/122) Accurately ripped
11 [eabc8b90] (002/124) Accurately ripped
12 [81a125d4] (002/121) Accurately ripped
Offsetted by 18:
01 [c1b5ff38] (010/123) Accurately ripped
02 [fc34f9dd] (010/124) Accurately ripped
03 [f9e2628b] (010/124) Accurately ripped
04 [1bfa82fe] (010/120) Accurately ripped
05 [795ed756] (010/125) Accurately ripped
06 [41504fda] (010/123) Accurately ripped
07 [80ac80f1] (010/121) Accurately ripped
08 [15f6e445] (010/122) Accurately ripped
09 [0b1b7df8] (010/122) Accurately ripped
10 [493d35b5] (010/122) Accurately ripped
11 [7a1244fe] (010/124) Accurately ripped
12 [a0ea6012] (010/121) Accurately ripped
Offsetted by -974:
01 [2de5fc66] (000/123) No match (V2 was not tested)
02 [ec577bd7] (000/124) No match (V2 was not tested)
03 [08e7406b] (000/124) No match (V2 was not tested)
04 [8635a820] (000/120) No match (V2 was not tested)
05 [22fc52ba] (000/125) No match (V2 was not tested)
06 [7cfaf0fc] (000/123) No match (V2 was not tested)
07 [e3fdfc31] (000/121) No match (V2 was not tested)
08 [1f6f07b7] (000/122) No match (V2 was not tested)
09 [c96cd71e] (000/122) No match (V2 was not tested)
10 [58876af5] (000/122) No match (V2 was not tested)
11 [5023823e] (000/124) No match (V2 was not tested)
12 [f2ff5e1d] (000/121) No match (V2 was not tested)

Track Peak [ CRC32 ] [W/O NULL] [ LOG ]
– 99,9 [B53DA649] [FBCBCF12]
01 99,9 [E051B413] [88A89C12] CRC32
02 99,9 [B07F1D49] [17B384EC] CRC32
03 99,9 [B28310FE] [9CF7C350] CRC32
04 99,9 [287FB8A0] [C6607454] CRC32
05 87,2 [3FAC028C] [E38040C6] CRC32
06 99,9 [81EC4D32] [9DA75FD8] CRC32
07 99,9 [0A918049] [07AB6C25] CRC32
08 99,9 [C3EB574C] [9500CBA6] CRC32
09 99,9 [23D1B160] [E1E958EF] CRC32
10 99,9 [1B2693FF] [BCB4FA75] CRC32
11 99,9 [6815B41A] [3716531D] CRC32
12 72,2 [9D28AE81] [E8E5273E] CRC32

foobar2000 1.6.3 / Dynamic Range Meter 1.1.1
log date: 2021-06-21 00:11:22

––––––––––––––––––––––––––––––––––––––––
Analyzed: James Taylor / New Moonshine
––––––––––––––––––––––––––––––––––––––––

DR Peak RMS Duration Track
––––––––––––––––––––––––––––––––––––––––
DR13 0.00 dB -15.30 dB 4:22 01-Copperline
DR12 0.00 dB -16.50 dB 5:16 02-Down In The Hole
DR13 0.00 dB -14.87 dB 4:01 03-(I've Got To) Stop Thinkin' 'Bout That
DR12 0.00 dB -15.01 dB 3:52 04-Shed A Little LIght
DR14 -1.19 dB -18.09 dB 3:54 05-The Frozen Man
DR12 0.00 dB -13.28 dB 2:00 06-Slap Leather
DR12 0.00 dB -14.32 dB 4:57 07-Like Everyone She Knows
DR12 0.00 dB -14.02 dB 4:41 08-One More Go Round
DR13 0.00 dB -14.59 dB 3:38 09-Everbody Loves To Cha Cha Cha
DR12 0.00 dB -13.64 dB 3:49 10-Native Son
DR13 0.00 dB -15.24 dB 4:25 11-Oh Brother
DR11 -2.82 dB -19.08 dB 3:00 12-The Water Is Wide
––––––––––––––––––––––––––––––––––––––––

Number of tracks: 12
Official DR value: DR12

Samplerate: 44100 Hz
Channels: 2
Bits per sample: 16
Bitrate: 673 kbps
Codec: FLAC
================================================================================

James Taylor - New Moon Shine (1991)

All thanks to original releaser - saintsmon

More interesting music in My Blog