Subcategories

James Brown - The Soul Brother's Jazz [Recorded 1963-1969] (2010)

Posted By: gribovar
James Brown - The Soul Brother's Jazz [Recorded 1963-1969] (2010)

James Brown - The Soul Brother's Jazz [Recorded 1963-1969] (2010)
EAC Rip | FLAC (image+.cue+log) - 436 MB | MP3 CBR 320 kbps (LAME 3.93) - 162 MB | Covers (4 MB) included
Genre: Soul | RAR 3% Rec. | Label: Universal Music (06007 5324993)

The Jazz Club series is an attractive addition to the Verve catalogue. With it's modern design and popular choice of repertoire, the Jazz Club is not only opened for Jazz fans, but for everyone that loves good music.
"Soul Brother Number One," "the Godfather of Soul," "the Hardest Working Man in Show Business," "Mr. Dynamite" - those are mighty titles, but no one can question that James Brown earned them more than any other performer. Other singers were more popular, others were equally skilled, but few other African-American musicians were so influential over the course of popular music. And no other musician, pop or otherwise, put on a more exciting, exhilarating stage show: Brown's performances were marvels of athletic stamina and split-second timing.
Through the gospel-impassioned fury of his vocals and the complex polyrhythms of his beats, Brown was a crucial midwife in not just one, but two revolutions in black American music. He was one of the figures most responsible for turning R&B into soul and he was, most would agree, the figure most responsible for turning soul music into the funk of the late '60s and early '70s. After the mid-'70s, he did little more than tread water artistically; his financial and drug problems eventually got him a controversial prison sentence. Yet in a sense, his music is now more influential than ever, as his voice and rhythms have been sampled on innumerable hip-hop recordings, and critics have belatedly hailed his innovations as among the most important in all of rock or soul.
Tracklist:
01. Cold Sweat
02. Your Cheatin' Heart
03. Cottage For Sale (Alternate Mix)
04. It Had To Be You
05. It's Magic
06. There
07. Willow Weep For Me
08. That's Life
09. All The Way
10. Papa's Got A Brand New Bag
11. The Man In The Glass
12. What Do You Like
13. Strangers In The Night
14. It's A Man's, Man's, Man's World
15. Sunny (feat. Marva Whitney)
16. The Thing In G

Total time: 01:07:11

Exact Audio Copy V1.0 beta 3 from 29. August 2011

Отчёт EAC об извлечении, выполненном 25. июня 2013, 22:26

Brown, James / The Soul Brother's Jazz

Дисковод: ASUS DRW-22B2ST Adapter: 2 ID: 1

Режим чтения : Достоверность
Использование точного потока : Да
Отключение кэша аудио : Да
Использование указателей C2 : Нет

Коррекция смещения при чтении : 6
Способность читать области Lead-in и Lead-out : Нет
Заполнение пропущенных сэмплов тишиной : Да
Удаление блоков с тишиной в начале и конце : Нет
При вычислениях CRC использовались нулевые сэмплы : Да
Интерфейс : Установленный внешний ASPI-интерфейс

Выходной формат : Внутренние WAV-операции
Формат сэмплов : 44.100 Гц; 16 бит; стерео


TOC извлечённого CD

Трек | Старт | Длительность | Начальный сектор | Конечный сектор
––––––––––––––––––––––––––––––––––-
1 | 0:00.00 | 5:03.49 | 0 | 22773
2 | 5:03.49 | 2:58.19 | 22774 | 36142
3 | 8:01.68 | 3:28.44 | 36143 | 51786
4 | 11:30.37 | 2:44.52 | 51787 | 64138
5 | 14:15.14 | 3:11.56 | 64139 | 78519
6 | 17:26.70 | 4:02.43 | 78520 | 96712
7 | 21:29.38 | 4:40.42 | 96713 | 117754
8 | 26:10.05 | 4:30.18 | 117755 | 138022
9 | 30:40.23 | 3:42.28 | 138023 | 154700
10 | 34:22.51 | 4:39.29 | 154701 | 175654
11 | 39:02.05 | 5:53.51 | 175655 | 202180
12 | 44:55.56 | 2:43.54 | 202181 | 214459
13 | 47:39.35 | 3:26.56 | 214460 | 229965
14 | 51:06.16 | 6:37.30 | 229966 | 259770
15 | 57:43.46 | 3:18.41 | 259771 | 274661
16 | 61:02.12 | 6:08.40 | 274662 | 302301


Характеристики диапазона извлечения и сообщения об ошибках

Выбранный диапазон

Имя файла E:\MP3Files\МУЗ РАБОЧИЙ\EAC\WAV\Brown, James - The Soul Brother's Jazz.wav

Пиковый уровень 98.8 %
Скорость извлечения 6.6 X
Качество диапазона 100.0 %
CRC теста B050EA47
CRC копии B050EA47
Копирование… OK

Ошибок не произошло


AccurateRip: сводка

Трек 1 отсутствует в базе данных
Трек 2 отсутствует в базе данных
Трек 3 отсутствует в базе данных
Трек 4 отсутствует в базе данных
Трек 5 отсутствует в базе данных
Трек 6 отсутствует в базе данных
Трек 7 отсутствует в базе данных
Трек 8 отсутствует в базе данных
Трек 9 отсутствует в базе данных
Трек 10 отсутствует в базе данных
Трек 11 отсутствует в базе данных
Трек 12 отсутствует в базе данных
Трек 13 отсутствует в базе данных
Трек 14 отсутствует в базе данных
Трек 15 отсутствует в базе данных
Трек 16 отсутствует в базе данных

Ни одного трека нет в базе AccurateRip

Конец отчёта

==== Контрольная сумма отчёта 4C5A62437F024FC97889EAA5C7610CA92F1FB7B406C067F9FCBB66590D8670E9 ====

[CUETools log; Date: 29.12.2019 19:43:42; Version: 2.1.4]
[CTDB TOCID: tg2t6CEu2UlnW_X7VPy6fuUF3jQ-] found.
Track | CTDB Status
1 | (9/9) Accurately ripped
2 | (9/9) Accurately ripped
3 | (9/9) Accurately ripped
4 | (9/9) Accurately ripped
5 | (9/9) Accurately ripped
6 | (9/9) Accurately ripped
7 | (9/9) Accurately ripped
8 | (9/9) Accurately ripped
9 | (9/9) Accurately ripped
10 | (9/9) Accurately ripped
11 | (9/9) Accurately ripped
12 | (9/9) Accurately ripped
13 | (9/9) Accurately ripped
14 | (9/9) Accurately ripped
15 | (9/9) Accurately ripped
16 | (9/9) Accurately ripped
[AccurateRip ID: 0024eb60-01bff531-ee0fbe10] found.
Track [ CRC | V2 ] Status
01 [f6b7c40d|7cd60b72] (0+4/4) Accurately ripped
02 [901472d4|7cf74f36] (0+4/4) Accurately ripped
03 [73995a00|f8ef1adb] (0+4/4) Accurately ripped
04 [ee1ba05d|9ba1807f] (0+4/4) Accurately ripped
05 [70461f02|9bbae973] (0+4/4) Accurately ripped
06 [4d45e869|7352a3df] (0+4/4) Accurately ripped
07 [7a395b6b|b1905d69] (0+4/4) Accurately ripped
08 [9afdc56b|4d7acb71] (0+4/4) Accurately ripped
09 [6fcf5211|9e9b7318] (0+4/4) Accurately ripped
10 [6ed5b42c|15e2d047] (0+4/4) Accurately ripped
11 [ae84d214|0d2298bb] (0+4/4) Accurately ripped
12 [a45237c0|063a1bf4] (0+4/4) Accurately ripped
13 [3208047a|80f338d7] (0+4/4) Accurately ripped
14 [9dae28f9|852ffbd4] (0+4/4) Accurately ripped
15 [a20e98ee|8971c86a] (0+4/4) Accurately ripped
16 [e013429f|2d22288d] (2+4/6) Accurately ripped

Track Peak [ CRC32 ] [W/O NULL] [ LOG ]
– 98,8 [B050EA47] [08EE2771] CRC32
01 98,8 [8B6539E3] [B41E0F4C]
02 92,8 [7EA62508] [607D92F1]
03 75,2 [15D05BF9] [9CB1F22C]
04 98,8 [FFE90E48] [636F7326]
05 98,8 [7785A89B] [0FA92BCE]
06 98,8 [779D7B32] [4779E741]
07 98,8 [CEBDC505] [A9253738]
08 98,8 [53E5785F] [1466DEF3]
09 98,8 [68387591] [2DF7D82C]
10 74,2 [7C285055] [B85EA864]
11 98,8 [1A9C6653] [E9CE04E5]
12 98,8 [2DF26E73] [E3424839]
13 98,8 [8EAF6938] [C112FD50]
14 74,8 [84E5B8AA] [87AD5741]
15 95,9 [CC95B057] [872C815E]
16 91,5 [E61D9F36] [75E7751A]

Thanks to the original releaser