Subcategories

Jan Garbarek, The Hilliard Ensemble - Remember Me, My Dear (2019)

Posted By: ArlegZ
Jan Garbarek, The Hilliard Ensemble - Remember Me, My Dear (2019)

Jan Garbarek, The Hilliard Ensemble - Remember Me, My Dear (2019)
EAC | FLAC | Image (Cue & Log) ~ 351 Mb | Total time: 77:33 | Scans included
Classical | Label: ECM | 2625 | Recorded: 2014

25 years on from the release of Officium, the groundbreaking alliance of Jan Garbarek and The Hilliard Ensemble, comes Remember me, my dear, recorded during the final tour the group made in October 2014.
Named for the Scottish ballad which concludes it, the programme is emblematic of the range of repertoire the Norwegian saxophonist and British vocal quartet explored together from Pérotin, Hildegard von Bingen, Guillaume le Rouge, Antoine Brumel to Komitas, Arvo Pärt and more.
It could be said that the Hilliard/Garbarek combination, in concert, transcended its source materials, with early music, contemporary composition and improvisation interfused in the responsive acoustics of sacred spaces. And this final album reminds us that this unique grouping, and its unprecedented exploration of sound, was consistently breathtaking.
They were first brought together by producer Manfred Eicher in 1993. Officium, the debut album made the following year, touched a large international audience. A million copies of Officium were sold swiftly, and a thousand concerts, many in cathedrals, churches and other sacred spaces, followed over a 20-year period.

Performer:
Jan Garbarek, soprano saxophone
The Hilliard Ensemble:
David James, countertenor
Steven Harrold. tenor
Rogers Covey-Crump, tenor
Gordon Jones, baritone

Track List:
Anonymous
01. Ov zarmanali
02. Procurans odium
Jan Garbarek (1947)
03. Allting finns
Nikolay Kedrov Sr. (1871-1940)
04. Litany
Anonymous
05. Dostoino est
06. Sanctus
Arvo Pärt (1935)
07. Most Holy Mother of God
Anonymous
08. Procedentem sponsum
Guillaume Le Rouge (c1385-c1450)
09. Se je fayz deuil
Perotinus (c1160-c1236)
10. Alleluia nativitas
Hildegard von Bingen (1098-1179)
11. O ignis spiritus
Jan Garbarek (1947)
12. We Are the Stars
Antoine Brumel (c1450-c1520)
13. Agnus Dei
Anonymous
14. Remember Me, My Dear


Exact Audio Copy V1.3 from 2. September 2016

EAC extraction logfile from 5. November 2019, 3:51

The Hilliard Ensemble & Jan Garbarek / Remember me, my dear

Used drive : ATAPI iHES108 2 Adapter: 1 ID: 0

Read mode : Secure
Utilize accurate stream : Yes
Defeat audio cache : Yes
Make use of C2 pointers : No

Read offset correction : 6
Overread into Lead-In and Lead-Out : No
Fill up missing offset samples with silence : Yes
Delete leading and trailing silent blocks : No
Null samples used in CRC calculations : Yes
Used interface : Native Win32 interface for Win NT & 2000

Used output format : User Defined Encoder
Selected bitrate : 768 kBit/s
Quality : High
Add ID3 tag : No
Command line compressor : C:\Program Files (x86)\Exact Audio Copy 1.3\Flac\flac.exe
Additional command line options : -8 -V -T "ARTIST=%artist%" -T "TITLE=%title%" -T "ALBUM=%albumtitle%" -T "DATE=%year%" -T "TRACKNUMBER=%tracknr%" -T "TOTALTRACKS=%numtracks%" -T "GENRE=%genre%" -T "ALBUMARTIST=%albumartist%" -T "ALBUM ARTIST=%albumartist%" -T "COMMENT=EAC Secure Mode, Test & Copy, AccurateRip, FLAC -8" %source%


TOC of the extracted CD

Track | Start | Length | Start sector | End sector
––––––––––––––––––––––––––––-
1 | 0:00.00 | 6:00.28 | 0 | 27027
2 | 6:00.28 | 3:23.07 | 27028 | 42259
3 | 9:23.35 | 4:00.48 | 42260 | 60307
4 | 13:24.08 | 9:00.25 | 60308 | 100832
5 | 22:24.33 | 3:16.39 | 100833 | 115571
6 | 25:40.72 | 7:50.66 | 115572 | 150887
7 | 33:31.63 | 4:11.68 | 150888 | 169780
8 | 37:43.56 | 4:17.69 | 169781 | 189124
9 | 42:01.50 | 6:17.10 | 189125 | 217409
10 | 48:18.60 | 5:09.71 | 217410 | 240655
11 | 53:28.56 | 7:29.03 | 240656 | 274333
12 | 60:57.59 | 5:19.58 | 274334 | 298316
13 | 66:17.42 | 6:10.01 | 298317 | 326067
14 | 72:27.43 | 5:13.07 | 326068 | 349549


Range status and errors

Selected range

Filename C:\The Hilliard Ensemble & Jan Garbarek - Remember me, my dear.wav

Peak level 97.2 %
Extraction speed 8.1 X
Range quality 100.0 %
Test CRC 7AB53174
Copy CRC 7AB53174
Copy OK

No errors occurred


AccurateRip summary

Track 1 not present in database
Track 2 not present in database
Track 3 not present in database
Track 4 not present in database
Track 5 not present in database
Track 6 not present in database
Track 7 not present in database
Track 8 not present in database
Track 9 not present in database
Track 10 not present in database
Track 11 not present in database
Track 12 not present in database
Track 13 not present in database
Track 14 not present in database

None of the tracks are present in the AccurateRip database

End of status report

–– CUETools DB Plugin V2.1.6

[CTDB TOCID: mw8TIg7vWOduK2McfrzR6t59am4-] found
Submit result: mw8TIg7vWOduK2McfrzR6t59am4- has been confirmed
Track | CTDB Status
1 | (11/11) Accurately ripped
2 | (11/11) Accurately ripped
3 | (11/11) Accurately ripped
4 | (11/11) Accurately ripped
5 | (11/11) Accurately ripped
6 | (11/11) Accurately ripped
7 | (11/11) Accurately ripped
8 | (11/11) Accurately ripped
9 | (11/11) Accurately ripped
10 | (11/11) Accurately ripped
11 | (11/11) Accurately ripped
12 | (11/11) Accurately ripped
13 | (11/11) Accurately ripped
14 | (11/11) Accurately ripped


==== Log checksum FCB0200E3F79ABD28942D505D704AB1B30EBA93FA7AD5A81100D8DA5E50E4325 ====


Thanks to the original releaser