Tags
Language
Tags

Jan Tomasz Adamus, Capella Cracoviensis - Pergolesi: Adriano in Siria (2016)

Posted By: ArlegZ
Jan Tomasz Adamus, Capella Cracoviensis - Pergolesi: Adriano in Siria (2016)

Jan Tomasz Adamus, Capella Cracoviensis - Pergolesi: Adriano in Siria (2016)
EAC | FLAC | Image (Cue & Log) ~ 867 Mb | Total time: 177:59 | Scans included
Classical | Label: Decca | 483 0004 | Recorded: 2015

New love, position, power, revenge, disguise, mistaken identity, complications and passionate devotion – the full spectrum of baroque opera seria is here in this new recording of Pergolesi’s ‘Adriano In Siria’. Franco Fagioli leads the cast, alongside Romina Basso, Yuriy Mynenko, Dilyara Idrisova, Juan Sancho and Cigdem Soyarslan, accompanied by the exuberant Polish orchestra Capella Cracoviensis under the baton of Jan Tomasz Adamus. Famed for his Stabat Mater, Pergolesi died aged just 26 but had already completed four opera seria; ‘Adriano in Siria’ is the third of these and has a libretto by Metastasio.

Performer:
Adriano - Yuriy Mynenko
Emirena - Romina Basso
Farnaspe - Franco Fagioli
Sabina - Dilyara Idrisova
Osroa - Juan Sancho
Aquilio - Çiğdem Soyarslan
Capella Cracoviensis
Conductor - Jan Tomasz Adamus

Track List:
CD1:
01. Sinfonia
02. Atto I. Scena 1. Recitativo: Chiede il parto Farnaspe di presentarsi a te (Aquilio, Adriano, Farnaspe, Osroa)
03. Aria: Dal labbro che t'accende (Adriano)
04. Scena 2. Recitativo: Comprendesti, o Farnaspe (Osroa, Farnaspe)
05. Scena 3. Recitativo: Dalla man del nemico il gran pegno si tolga (Osroa)
06. Aria: Sprezza il furor del vento (Osroa)
07. Scena 4. Recitativo: Ah, se con qualche inganno non prevengo Emirena (Adriano, Emirena)
08. Scena 5. Recitativo: Principe, quelle sono le sembianze che adori? (Adriano, Farnaspe, Emirena)
09. Aria: Sul mio cor so ben qual sia (Farnaspe)
10. Scena 6. Recitativo: Dove, Emirena? (Adriano, Emirena)
11. Scena 7. Recitativo: Signor… - Che fu? (Aquilio, Adriano)
12. Scena 8. Recitativo: Sposo, Augusto, signor, questo è il momento (Sabina, Adriano)
13. Scena 9. Recitativo: Aquilio, io non l'intendo (Sabina, Aquilio, Emirena)
14. Aria: Prigionera abbandonata (Emirena)
15. Scena 10. Recitativo: Tentiam la nostra sorte (Aquilio, Sabina)
16. Aria: Vuoi punir l'ingrato amante? (Aquilo)
17. Scena 11. Recitativo: Io piango! (Sabina)
18. Aria: Chi soffre senza pianto (Sabina)
19. Scena 12. Recitativo: Feroci Parti, al nostro ardir felice arrise il ciel (Osroa, Farnaspe)
20. Accompagnato: E pure, ad onta del mio furor (Osroa)
21. Aria: A un semplice instante (Osroa)
22. Scena 13. Recitativo: E nessuno sa dirmi se sia salvo il mio sposo! (Sabina, Aquilio, Adriano)
23. Scena 14. Recitativo: Senti… come mi lascia! (Sabina, Emirena)
24. Scena 15. Recitativo: Farnaspe! - Principessa! (Emirena, Farnaspe)
25. Aria: Sola mi lasci a piangere (Emirena)
26. Scena 16. Recitativo: Oh cari sdegni, oh amabili trasporti (Farnaspe)
27. Aria: Lieto così talvolta (Farnaspe)
CD2:
01. Atto II. Scena 1. Recitativo: Veramente tu sei, più di quel che credei, sollecita ed attenta (Sabina, Emirena)
02. Scena 2. Recitativo: Chi sa! quando lontana Emirena sarà (Sabina, Adriano, Aquilio)
03. Aria: Ah ingrate m'inganni (Sabina)
04. Scena 3. Recitativo: Udisti, Aquilio? (Adriano, Aquilio)
05. Scena 4. Recitativo: Tolleranza, o mio cor (Aquilio)
06. Aria: Saggio guerriero antico (Aquilio)
07. Scena 5. Recitativo: Qui Sabina non veggo (Emirena, Sabina, Farnaspe)
08. Aria: Splenda per voi sereno (Sabina)
09. Scena 6. Recitativo: Ed è ver che sei mia? (Farnaspe, Emirena)
10. Scena 7. Recitativo: Fra l'ombre adesso (Osroa, Farnaspe, Emirena)
11. Scena 8. Recitativo: Fermati, traditor! (Adriano, Farnaspe, Emirena, Osroa)
12. Aria: Tutti nemici e rei (Adriano)
13. Scena 9. Recitativo: Padre… (Emirena, Osroa, Farnaspe)
14. Aria: Quell'amplesso e quell perdono (Emirena)
15. Scena 10. Recitativo: Almen tutto il mio sangue a conservar bastasse (Farnaspe, Osroa)
16. Aria: Leon piagato a morte (Osroa)
17. Scena 11. Recitativo: E non ti struggi in pianto (Farnaspe)
18. Aria: Torbido in volto e nero (Farnaspe)
CD3:
01. Atto III. Scena 1. Recitativo: Come! ch'io parta? (Sabina, Aquilio)
02. Aria: Digli ch'è un infedele (Sabina)
03. Scena 2. Recitativo: Io la trama dispongo (Aquilio)
04. Aria: Contento forse vivere del mio martir potrei (Aquilio)
05. Scena 3. Recitativo: Aquilio, che ottenesti? (Adriano, Aquilio)
06. Scena 4. Recitativo: Che dir può il mondo? (Adriano, Osroa, Aquilio)
07. Scena 5. Recitativo: Bellissima Emirena (Adriano, Osroa, Emirena)
08. Aria: Fra poco assiso in trono Cesare parlerà (Adriano)
09. Scena 6. Recitativo: Figlia, se è ver che m'ami (Osroa, Emirena)
10. Aria: Ti perdi e confondi (Osroa)
11. Scena 7. Recitativo: Misera! a qual consiglio appigliarmi dovrò? (Emirena, Farnaspe)
12. Duetto: L'estremo pegno almeno ricevi (Farnaspe, Emirena)
13. Scena 8. Recitativo: Sabina, ascolta! (Adriano, Aquilio, Sabina)
14. Scena 9. Recitativo: Ah, Cesare, pieta! (Emirena, Farnaspe, Adriano, Sabina)
15. Coro: S'oda, Augusto (Tutti)


Exact Audio Copy V1.5 from 20. February 2020

EAC extraction logfile from 19. September 2020, 12:01

Jan Tomasz Adamus, Capella Cracoviensis / Pergolesi - Adriano in Siria CD1

Used drive : PIONEER DVD-RW DVR-218L Adapter: 1 ID: 0

Read mode : Secure
Utilize accurate stream : Yes
Defeat audio cache : Yes
Make use of C2 pointers : No

Read offset correction : 6
Overread into Lead-In and Lead-Out : No
Fill up missing offset samples with silence : Yes
Delete leading and trailing silent blocks : No
Null samples used in CRC calculations : Yes
Used interface : Native Win32 interface for Win NT & 2000

Used output format : User Defined Encoder
Selected bitrate : 128 kBit/s
Quality : High
Add ID3 tag : No
Command line compressor : C:\Program Files\Exact Audio Copy\Flac\flac.exe
Additional command line options : -V -8 -T "Date=%year%" -T "Genre=%genre%" %source%


TOC of the extracted CD

Track | Start | Length | Start sector | End sector
––––––––––––––––––––––––––––-
1 | 0:00.00 | 4:05.55 | 0 | 18429
2 | 4:05.55 | 5:39.24 | 18430 | 43878
3 | 9:45.04 | 4:08.20 | 43879 | 62498
4 | 13:53.24 | 1:09.27 | 62499 | 67700
5 | 15:02.51 | 0:34.70 | 67701 | 70320
6 | 15:37.46 | 3:07.16 | 70321 | 84361
7 | 18:44.62 | 3:01.02 | 84362 | 97938
8 | 21:45.64 | 3:28.29 | 97939 | 113567
9 | 25:14.18 | 7:35.40 | 113568 | 147732
10 | 32:49.58 | 1:07.18 | 147733 | 152775
11 | 33:57.01 | 0:29.66 | 152776 | 155016
12 | 34:26.67 | 0:55.65 | 155017 | 159206
13 | 35:22.57 | 1:12.29 | 159207 | 164635
14 | 36:35.11 | 5:51.36 | 164636 | 190996
15 | 42:26.47 | 0:41.06 | 190997 | 194077
16 | 43:07.53 | 3:36.59 | 194078 | 210336
17 | 46:44.37 | 0:48.25 | 210337 | 213961
18 | 47:32.62 | 6:55.73 | 213962 | 245159
19 | 54:28.60 | 1:41.35 | 245160 | 252769
20 | 56:10.20 | 1:52.34 | 252770 | 261203
21 | 58:02.54 | 3:02.03 | 261204 | 274856
22 | 61:04.57 | 1:37.59 | 274857 | 282190
23 | 62:42.41 | 0:47.09 | 282191 | 285724
24 | 63:29.50 | 2:29.54 | 285725 | 296953
25 | 65:59.29 | 6:24.40 | 296954 | 325793
26 | 72:23.69 | 0:27.59 | 325794 | 327877
27 | 72:51.53 | 12:30.72 | 327878 | 384199


Range status and errors

Selected range

Filename C:\ArlegZ\Jan Tomasz Adamus - Pergolesi - Adriano in Siria CD1.wav

Peak level 95.7 %
Extraction speed 2.2 X
Range quality 100.0 %
Test CRC E3BF6B29
Copy CRC E3BF6B29
Copy OK

No errors occurred


AccurateRip summary

Track 1 accurately ripped (confidence 6) [22207178] (AR v2)
Track 2 accurately ripped (confidence 6) [45529474] (AR v2)
Track 3 accurately ripped (confidence 6) [D603F343] (AR v2)
Track 4 accurately ripped (confidence 6) [418D9738] (AR v2)
Track 5 accurately ripped (confidence 6) [EE91AC41] (AR v2)
Track 6 accurately ripped (confidence 6) [8D57DD85] (AR v2)
Track 7 accurately ripped (confidence 6) [E00BD64D] (AR v2)
Track 8 accurately ripped (confidence 6) [68AA9C57] (AR v2)
Track 9 accurately ripped (confidence 6) [2E446C18] (AR v2)
Track 10 accurately ripped (confidence 6) [C4E677C9] (AR v2)
Track 11 accurately ripped (confidence 6) [B307956E] (AR v2)
Track 12 accurately ripped (confidence 6) [EE7D346C] (AR v2)
Track 13 accurately ripped (confidence 6) [DECF2B4B] (AR v2)
Track 14 accurately ripped (confidence 6) [0F1A7FDE] (AR v2)
Track 15 accurately ripped (confidence 6) [C000184E] (AR v2)
Track 16 accurately ripped (confidence 6) [7BB6D31F] (AR v2)
Track 17 accurately ripped (confidence 6) [BA4C266A] (AR v2)
Track 18 accurately ripped (confidence 6) [A61747D4] (AR v2)
Track 19 accurately ripped (confidence 6) [8E0A27DE] (AR v2)
Track 20 accurately ripped (confidence 6) [4C20C794] (AR v2)
Track 21 accurately ripped (confidence 6) [1767F9FE] (AR v2)
Track 22 accurately ripped (confidence 6) [088E1A86] (AR v2)
Track 23 accurately ripped (confidence 6) [696B0E9F] (AR v2)
Track 24 accurately ripped (confidence 6) [9B490EED] (AR v2)
Track 25 accurately ripped (confidence 6) [415F9955] (AR v2)
Track 26 accurately ripped (confidence 6) [433178E1] (AR v2)
Track 27 accurately ripped (confidence 4) [A3ACFDEF] (AR v2)

All tracks accurately ripped

End of status report

–– CUETools DB Plugin V2.1.6

[CTDB TOCID: JlpVme7tgsg0EHjQmyJi2uVfEKw-] found
Submit result: JlpVme7tgsg0EHjQmyJi2uVfEKw- has been confirmed
Track | CTDB Status
1 | (14/14) Accurately ripped
2 | (14/14) Accurately ripped
3 | (14/14) Accurately ripped
4 | (14/14) Accurately ripped
5 | (14/14) Accurately ripped
6 | (14/14) Accurately ripped
7 | (14/14) Accurately ripped
8 | (14/14) Accurately ripped
9 | (14/14) Accurately ripped
10 | (14/14) Accurately ripped
11 | (14/14) Accurately ripped
12 | (14/14) Accurately ripped
13 | (14/14) Accurately ripped
14 | (14/14) Accurately ripped
15 | (14/14) Accurately ripped
16 | (14/14) Accurately ripped
17 | (14/14) Accurately ripped
18 | (14/14) Accurately ripped
19 | (14/14) Accurately ripped
20 | (14/14) Accurately ripped
21 | (14/14) Accurately ripped
22 | (14/14) Accurately ripped
23 | (14/14) Accurately ripped
24 | (14/14) Accurately ripped
25 | (14/14) Accurately ripped
26 | (14/14) Accurately ripped
27 | (11/14) Accurately ripped


==== Log checksum 1C04273875F6CA2CF6F16E109EC2AF1A3F8EF7FB17FDF6BB27A5521395CE0CD2 ====


Exact Audio Copy V1.5 from 20. February 2020

EAC extraction logfile from 19. September 2020, 13:23

Jan Tomasz Adamus, Capella Cracoviensis / Pergolesi - Adriano in Siria CD2

Used drive : PIONEER DVD-RW DVR-218L Adapter: 1 ID: 0

Read mode : Secure
Utilize accurate stream : Yes
Defeat audio cache : Yes
Make use of C2 pointers : No

Read offset correction : 6
Overread into Lead-In and Lead-Out : No
Fill up missing offset samples with silence : Yes
Delete leading and trailing silent blocks : No
Null samples used in CRC calculations : Yes
Used interface : Native Win32 interface for Win NT & 2000

Used output format : User Defined Encoder
Selected bitrate : 128 kBit/s
Quality : High
Add ID3 tag : No
Command line compressor : C:\Program Files\Exact Audio Copy\Flac\flac.exe
Additional command line options : -V -8 -T "Date=%year%" -T "Genre=%genre%" %source%


TOC of the extracted CD

Track | Start | Length | Start sector | End sector
––––––––––––––––––––––––––––-
1 | 0:00.00 | 2:06.53 | 0 | 9502
2 | 2:06.53 | 4:38.14 | 9503 | 30366
3 | 6:44.67 | 3:23.60 | 30367 | 45651
4 | 10:08.52 | 0:36.16 | 45652 | 48367
5 | 10:44.68 | 0:26.37 | 48368 | 50354
6 | 11:11.30 | 4:12.44 | 50355 | 69298
7 | 15:23.74 | 1:33.24 | 69299 | 76297
8 | 16:57.23 | 5:51.69 | 76298 | 102691
9 | 22:49.17 | 1:08.55 | 102692 | 107846
10 | 23:57.72 | 2:01.19 | 107847 | 116940
11 | 25:59.16 | 4:08.14 | 116941 | 135554
12 | 30:07.30 | 1:36.05 | 135555 | 142759
13 | 31:43.35 | 1:21.46 | 142760 | 148880
14 | 33:05.06 | 4:53.65 | 148881 | 170920
15 | 37:58.71 | 0:35.55 | 170921 | 173600
16 | 38:34.51 | 4:39.03 | 173601 | 194528
17 | 43:13.54 | 1:04.53 | 194529 | 199381
18 | 44:18.32 | 7:04.69 | 199382 | 231250


Range status and errors

Selected range

Filename C:\ArlegZ\Jan Tomasz Adamus - Pergolesi - Adriano in Siria CD2.wav

Peak level 95.8 %
Extraction speed 1.8 X
Range quality 100.0 %
Test CRC 1E0EF83D
Copy CRC 1E0EF83D
Copy OK

No errors occurred


AccurateRip summary

Track 1 accurately ripped (confidence 6) [41EB20A5] (AR v2)
Track 2 accurately ripped (confidence 6) [5FAA7948] (AR v2)
Track 3 accurately ripped (confidence 6) [CAE94D5F] (AR v2)
Track 4 accurately ripped (confidence 6) [A43FE9CF] (AR v2)
Track 5 accurately ripped (confidence 6) [73B19756] (AR v2)
Track 6 accurately ripped (confidence 5) [DBE803AA] (AR v2)
Track 7 accurately ripped (confidence 6) [B35F8F3C] (AR v2)
Track 8 accurately ripped (confidence 6) [624088C9] (AR v2)
Track 9 accurately ripped (confidence 6) [6958AC37] (AR v2)
Track 10 accurately ripped (confidence 6) [AF2C865B] (AR v2)
Track 11 accurately ripped (confidence 6) [FBC1B8CF] (AR v2)
Track 12 accurately ripped (confidence 6) [BE8AA115] (AR v2)
Track 13 accurately ripped (confidence 6) [AC34189F] (AR v2)
Track 14 accurately ripped (confidence 6) [3466BDA5] (AR v2)
Track 15 accurately ripped (confidence 6) [E643ACD1] (AR v2)
Track 16 accurately ripped (confidence 6) [2184E2FD] (AR v2)
Track 17 accurately ripped (confidence 6) [D670E1B0] (AR v2)
Track 18 accurately ripped (confidence 6) [FA2316FF] (AR v2)

All tracks accurately ripped

End of status report

–– CUETools DB Plugin V2.1.6

[CTDB TOCID: mQaNDAOq8U.7jMLnPM3xwLqkKDs-] found
Submit result: mQaNDAOq8U.7jMLnPM3xwLqkKDs- has been confirmed
Track | CTDB Status
1 | (23/24) Accurately ripped
2 | (24/24) Accurately ripped
3 | (23/24) Accurately ripped
4 | (24/24) Accurately ripped
5 | (24/24) Accurately ripped
6 | (24/24) Accurately ripped
7 | (24/24) Accurately ripped
8 | (24/24) Accurately ripped
9 | (24/24) Accurately ripped
10 | (24/24) Accurately ripped
11 | (24/24) Accurately ripped
12 | (24/24) Accurately ripped
13 | (24/24) Accurately ripped
14 | (24/24) Accurately ripped
15 | (24/24) Accurately ripped
16 | (24/24) Accurately ripped
17 | (24/24) Accurately ripped
18 | (23/24) Accurately ripped


==== Log checksum ABA08E8277C5908DFDEBDD71999CA5097C3179036399652971FBF8D639E86E2D ====


Exact Audio Copy V1.5 from 20. February 2020

EAC extraction logfile from 19. September 2020, 14:57

Jan Tomasz Adamus, Capella Cracoviensis / Pergolesi - Adriano in Siria CD3

Used drive : PIONEER DVD-RW DVR-218L Adapter: 1 ID: 0

Read mode : Secure
Utilize accurate stream : Yes
Defeat audio cache : Yes
Make use of C2 pointers : No

Read offset correction : 6
Overread into Lead-In and Lead-Out : No
Fill up missing offset samples with silence : Yes
Delete leading and trailing silent blocks : No
Null samples used in CRC calculations : Yes
Used interface : Native Win32 interface for Win NT & 2000

Used output format : User Defined Encoder
Selected bitrate : 128 kBit/s
Quality : High
Add ID3 tag : No
Command line compressor : C:\Program Files\Exact Audio Copy\Flac\flac.exe
Additional command line options : -V -8 -T "Date=%year%" -T "Genre=%genre%" %source%


TOC of the extracted CD

Track | Start | Length | Start sector | End sector
––––––––––––––––––––––––––––-
1 | 0:00.00 | 1:32.37 | 0 | 6936
2 | 1:32.37 | 3:42.52 | 6937 | 23638
3 | 5:15.14 | 0:33.58 | 23639 | 26171
4 | 5:48.72 | 4:24.23 | 26172 | 45994
5 | 10:13.20 | 1:28.53 | 45995 | 52647
6 | 11:41.73 | 3:50.74 | 52648 | 69971
7 | 15:32.72 | 2:07.01 | 69972 | 79497
8 | 17:39.73 | 3:06.36 | 79498 | 93483
9 | 20:46.34 | 1:01.44 | 93484 | 98102
10 | 21:48.03 | 3:15.04 | 98103 | 112731
11 | 25:03.07 | 3:22.41 | 112732 | 127922
12 | 28:25.48 | 7:30.54 | 127923 | 161726
13 | 35:56.27 | 1:22.17 | 161727 | 167893
14 | 37:18.44 | 3:28.41 | 167894 | 183534
15 | 40:47.10 | 0:20.10 | 183535 | 185044


Range status and errors

Selected range

Filename C:\ArlegZ\Jan Tomasz Adamus - Pergolesi - Adriano in Siria CD3.wav

Peak level 95.8 %
Extraction speed 1.7 X
Range quality 100.0 %
Test CRC 8722DB41
Copy CRC 8722DB41
Copy OK

No errors occurred


AccurateRip summary

Track 1 accurately ripped (confidence 6) [271A5AB5] (AR v2)
Track 2 accurately ripped (confidence 6) [B57BC044] (AR v2)
Track 3 accurately ripped (confidence 6) [6B6BC46B] (AR v2)
Track 4 accurately ripped (confidence 6) [D9B55646] (AR v2)
Track 5 accurately ripped (confidence 6) [D12F0145] (AR v2)
Track 6 accurately ripped (confidence 6) [B8E1AFF5] (AR v2)
Track 7 accurately ripped (confidence 6) [14C6EC40] (AR v2)
Track 8 accurately ripped (confidence 6) [E87FD8B7] (AR v2)
Track 9 accurately ripped (confidence 6) [EF276E9B] (AR v2)
Track 10 accurately ripped (confidence 6) [16E7D40D] (AR v2)
Track 11 accurately ripped (confidence 6) [EA2C3B9E] (AR v2)
Track 12 accurately ripped (confidence 6) [4A7816DB] (AR v2)
Track 13 accurately ripped (confidence 6) [26C791B4] (AR v2)
Track 14 accurately ripped (confidence 6) [8DD83944] (AR v2)
Track 15 accurately ripped (confidence 6) [0F1C7F47] (AR v2)

All tracks accurately ripped

End of status report

–– CUETools DB Plugin V2.1.6

[CTDB TOCID: L8er9g7x47cn0dQZ0VP090Cl.YE-] found
Submit result: L8er9g7x47cn0dQZ0VP090Cl.YE- has been confirmed
Track | CTDB Status
1 | (26/26) Accurately ripped
2 | (26/26) Accurately ripped
3 | (26/26) Accurately ripped
4 | (26/26) Accurately ripped
5 | (26/26) Accurately ripped
6 | (26/26) Accurately ripped
7 | (26/26) Accurately ripped
8 | (26/26) Accurately ripped
9 | (26/26) Accurately ripped
10 | (26/26) Accurately ripped
11 | (26/26) Accurately ripped
12 | (26/26) Accurately ripped
13 | (26/26) Accurately ripped
14 | (26/26) Accurately ripped
15 | (26/26) Accurately ripped


==== Log checksum 7F55583A0422234B25812DFF032A3462F1B7A3EAC2784EAE11AB79373FED7705 ====

Jan Tomasz Adamus, Capella Cracoviensis - Pergolesi: Adriano in Siria (2016)