Tags
Language
Tags

Jay Geils • Duke Robillard • Gerry Beaudoin - New Guitar Summit (2004)

Posted By: popsakov
Jay Geils • Duke Robillard • Gerry Beaudoin - New Guitar Summit (2004)

Jay Geils • Duke Robillard • Gerry Beaudoin - New Guitar Summit (2004)
EAC Rip | FLAC (Img) + Cue + Log ~ 339 Mb | MP3 CBR320 ~ 140 Mb
Full Scans | 00:53:13 | RAR 5% Recovery
Jazz Blues | Stony Plain Records #SPCD 1301

This unassuming and delightful little album visits a time when jazz and blues were still directly entwined, drawing on the ghosts of guitarists like Charlie Christian, Eddie Durham, Bill Jennings, Tiny Grimes, Barney Kessel, and Kenny Burrell, guitarists who used the blues to enrich the jazz pieces they played on, a kind of ensemble contribution that is all too frequently missing on the contemporary blues scene. Duke Robillard, Jay Geils, and Gerry Beaudoin are all gifted guitar players, each with his own career, but as a trio working three-part harmony lines around each other, they bring a stately ensemble grace to the tracks on New Guitar Summit (the trio also appears under that name when they do live shows). This is not a speaker-shattering blues-rock outing, and although everything here is informed by the blues, it is front and center a jazz album. Wonderful old chestnuts like "Perdido," the melody line of which was written by Juan Tizol, Duke Ellington's longtime valve trombonist, are given respectful, lightly swinging arrangements, and the three independent guitar lines work in easy harmonies with each other. When the solos come, they feel like perfect little waves breaking against a beach, wave after wave, one after another. Working with a rhythm section of John Turner on bass and Gordon Grottenthaler on drums, the three guitarists bring an interesting new perspective to Billie Holiday's "'Tain't Nobody's Bizness if I Do," which includes a tentative yet poignant vocal by Beaudoin, who also wrote two of the best pieces here, the gypsy blues "Azzure Mineur" and the album's defining track, the perfectly swinging "Just Among Friends." Robillard takes a vocal turn on saxophonist Eddie "Cleanhead" Vinson's "Backdoor Blues," but this is primarily an instrumental CD, with wonderfully nuanced guitar lines taking center stage. Charming, calm, and frequently beautiful, New Guitar Summit won't stir the beer-and-a-shot crowd, but it is a welcome exploration of a place and a time when jazz and blues were not yet estranged.

~ Steve Leggett, All Music

***************

Jay Geils • Duke Robillard • Gerry Beaudoin - New Guitar Summit (2004)

Jay Geils • Duke Robillard • Gerry Beaudoin - New Guitar Summit (2004)

Track List:

01. Bennies Bugle [3:34]
02. Never Say Never Again Again [5:02]
03. Swing with Dr.Jake [5:04]
04. Aint't Nobody's Business [5:13]
05. Lady B.Good [5:08]
06. Azzure Mineur [4:52]
07. Just Among Friends [3:25]
08. Perdido [4:43]
09. Backdoor Blues [5:22]
10. Seven Come Eleven [4:34]
11. Gilde On [6:16]

Personnel:
Jay Geils - Electric Guitar
Duke Robillard - Electric Guitar and acoustic rhythm guitar, Vocal Track #2 and #9
Gerry Beaudoin - 6-String Electric Guitar and 7-String Electric Guitar, Vocal track #4
John Turner - Acoustic Bass
Gordon Grottenthaler - Drums

Exact Audio Copy V0.99 prebeta 4 from 23. January 2008

Отчёт EAC об извлечении, выполненном 13. июля 2009, 20:05

Jay Geils-Duke Robillard-Gerry Beaudoin / New Guitar Summit

Дисковод: PLEXTOR DVDR PX-800A Adapter: 0 ID: 0

Режим чтения : Достоверность
Использование точного потока : Да
Отключение кэша аудио : Да
Использование указателей C2 : Нет

Коррекция смещения при чтении : 48
Способность читать области Lead-in и Lead-out : Нет
Заполнение пропущенных сэмплов тишиной : Да
Удаление блоков с тишиной в начале и конце : Нет
При вычислениях CRC использовались нулевые сэмплы : Да
Интерфейс : Установленный внешний ASPI-интерфейс

Выходной формат : Внутренние WAV-операции
Формат сэмплов : 44.100 Гц; 16 бит; стерео


TOC извлечённого CD

Трек | Старт | Длительность | Начальный сектор | Конечный сектор
––––––––––––––––––––––––––––––––––-
1 | 0:00.00 | 3:34.00 | 0 | 16049
2 | 3:34.00 | 5:02.00 | 16050 | 38699
3 | 8:36.00 | 5:04.00 | 38700 | 61499
4 | 13:40.00 | 5:13.37 | 61500 | 85011
5 | 18:53.37 | 5:08.00 | 85012 | 108111
6 | 24:01.37 | 4:51.38 | 108112 | 129974
7 | 28:53.00 | 3:25.37 | 129975 | 145386
8 | 32:18.37 | 4:42.38 | 145387 | 166574
9 | 37:01.00 | 5:22.37 | 166575 | 190761
10 | 42:23.37 | 4:33.38 | 190762 | 211274
11 | 46:57.00 | 6:16.10 | 211275 | 239484
12 | 55:45.10 | 17:44.01 | 250885 | 330685


Характеристики диапазона извлечения и сообщения об ошибках

Выбранный диапазон

Имя файла D:\Lossless\Jay Geils-Duke Robillard-Gerry Beaudoin - New Guitar Summit\Jay Geils-Duke Robillard-Gerry Beaudoin - New Guitar Summit.wav

Пиковый уровень 98.0 %
Качество диапазона 99.9 %
CRC копии 2A2A014E
Копирование… OK

Ошибок не произошло

Конец отчёта

[CUETools log; Date: 05.10.2017 22:09:37; Version: 2.1.5]
CD-Extra data track length 17:44:01.
[CTDB TOCID: Jg98wwRBoZk_a1lX4uo8av1f.Aw-] found.
Track | CTDB Status
1 | (12/13) Accurately ripped
2 | (12/13) Accurately ripped
3 | (12/13) Accurately ripped
4 | (12/13) Accurately ripped
5 | (12/13) Accurately ripped
6 | (12/13) Accurately ripped
7 | (12/13) Accurately ripped
8 | (12/13) Accurately ripped
9 | (12/13) Accurately ripped
10 | (12/13) Accurately ripped
11 | (13/13) Accurately ripped
[AccurateRip ID: 0016a502-00ca0662-9711390c] found.
Track [ CRC | V2 ] Status
01 [ac3ceae0|fc0b9f77] (07+06/13) Accurately ripped
02 [1666e52d|aad131d2] (07+06/13) Accurately ripped
03 [909065cf|85032b5c] (07+06/13) Accurately ripped
04 [96f49799|1fd319b7] (07+06/13) Accurately ripped
05 [de7e6b2f|2f9d2249] (07+06/13) Accurately ripped
06 [6c31f627|bfc63287] (07+06/13) Accurately ripped
07 [99acd731|3b489113] (06+06/12) Accurately ripped
08 [b80bf0bb|af652302] (07+06/13) Accurately ripped
09 [f633bc66|9fdb4f0c] (06+06/12) Accurately ripped
10 [ce4a9804|63bc921f] (06+06/12) Accurately ripped
11 [53c25c7e|73ee4ada] (07+06/13) Accurately ripped

Track Peak [ CRC32 ] [W/O NULL] [ LOG ]
– 98,0 [2A2A014E] [00019BE7] CRC32
01 97,9 [3C6A0947] [1B22AAB6]
02 98,0 [28E8E5E7] [1B609338]
03 98,0 [49849BC8] [F74C6FFB]
04 98,0 [80ED9D2F] [6385793E]
05 98,0 [6E161F7B] [49948CAA]
06 97,9 [88E9A291] [7A3FF2B2]
07 98,0 [C153AF4A] [CEF35CFC]
08 98,0 [5509B215] [9813CAD6]
09 98,0 [1636C3DB] [AE1E3B02]
10 97,9 [15865368] [13BCF5C6]
11 98,0 [9549CC83] [EA949996]

Jay Geils • Duke Robillard • Gerry Beaudoin - New Guitar Summit (2004)


All thanks go to SerBlues

>>> My Blog <<<

DOWNLOAD: