Tags
Language
Tags
July 2024
Su Mo Tu We Th Fr Sa
30 1 2 3 4 5 6
7 8 9 10 11 12 13
14 15 16 17 18 19 20
21 22 23 24 25 26 27
28 29 30 31 1 2 3

Jay Jesse Johnson - Set The Blues On Fire (2015)

Posted By: popsakov
Jay Jesse Johnson - Set The Blues On Fire (2015)

Jay Jesse Johnson - Set The Blues On Fire (2015)
EAC Rip | FLAC (Img) + Cue + Log ~ 440 Mb | MP3 CBR320 ~ 165 Mb
Full Scans | 00:56:49 | RAR 5% Recovery
Blues Rock | Grooveyard Records #GYR137

Outstanding 5th studio disc by this awesome blues/rock guitar axeslinger from Indiana. Featuring 12 tracks of top-shelf, world-class, powerful, dynamic, ass-kickin', blues-based guitar rock excellence that lands down hard between a rock and a blues place. Combining strong songs and amazing musicianship, complete with an excellent sonic production, it all adds up to create an incredible, sophisticated, memorable blues/rock guitar experience.

Jay Jesse Johnson is a true modern day guitar hero whose bad-ass six string playing skills are through the jam:house roof. Combining amazing technique with feel, killer tones to die for and drawing from excellent vintage musical influences/inspirations, Triple J has created his own stand-out voice on the instrument. The man is a veritable powerhouse guitar rock force to be reckoned with and on "Set The Blues on Fire", Jay Jesse Johnson has nailed down & produced one of his most cohesive & focused musical documents to date. This awesome disc also features the excellent musical talents of Reed Bogart on Bass, Jeff "Smokey" Donaldson on Drums & Lee Evans on Keyboards who all get down with the blues. And last but not least, special mention must go out to the way-kool DC Comic Cover Art created by talented artist Howard Porter portraying Triple J as a Guitar Rock Super Hero!!! (How appropriate, since Jay Jesse Johnson's mega-killer guitar playing lands with Super Human Six String Powers!!!)

The Jay Jesse Johnson: "Set The Blues On Fire" disc is an Essential blues/rock guitar disc that is Highly Recommended to fans of Jimi Hendrix, Robin Trower, Frank Marino, Stevie Ray Vaughan, Gary Moore, Pat Travers, Rick Derringer, Joe Bonamassa, Eric Gales, Mato Nanji & Indigenous, Alan Mirikitani & The Buddaheads, Craig Erickson, Tony Spinner, Dirty Dave Osti, Brett Ellis, Mike Onesko & Blindside Blues Band, Martin J. Andersen & Blindstone, Gugun Power Trio, Guitar Pete, Clas Yngstrom & Sky High, along with all other amazing, killer blues-based guitar rock axeslingers on the 3rd Stone From The Sun. Fans of Triple J's previous discs & musical output will heavily dig and appreciate this mega-awesome new Grooveyard Records disc. For Those About To Rock the Blues with JJJ, We Salute You. It's time to crank up the volume & turn up the stellar blues/rock power and "Set The Blues On Fire" with Jay Jesse Johnson.

~ Grooveyard Records

***************

Jay Jesse Johnson - Set The Blues On Fire (2015)

Track List:

01. Hell Or High Water [03:54]
02. Ghosts In Texas [04:21]
03. Since My Baby's Gone [04:57]
04. Wheelhouse Boogie [05:03]
05. Set The Blues On Fire [04:01]
06. Midnight Dream [05:49]
07. Voodoo Woman [04:07]
08. Don't Mess With Baby [04:30]
09. If I Knew Then [05:25]
10. Ace In The Hole [04:30]
11. Grinding Blues [04:51]
12. Rio De Los Suenos (River Of Dreams) [05:25]

Exact Audio Copy V1.0 beta 3 from 29. August 2011

Отчёт EAC об извлечении, выполненном 21. августа 2015, 22:47

Jay Jesse Johnson / Set The Blues On Fire

Дисковод: PLEXTOR DVDR PX-880SA Adapter: 1 ID: 0

Режим чтения : Достоверность
Использование точного потока : Да
Отключение кэша аудио : Да
Использование указателей C2 : Нет

Коррекция смещения при чтении : 6
Способность читать области Lead-in и Lead-out : Нет
Заполнение пропущенных сэмплов тишиной : Да
Удаление блоков с тишиной в начале и конце : Нет
При вычислениях CRC использовались нулевые сэмплы : Да
Интерфейс : Установленный внешний ASPI-интерфейс

Выходной формат : Пользовательский кодировщик
Выбранный битрейт : 1024 kBit/s
Качество : Высокий
Добавление ID3-тега : Нет
Утилита сжатия : C:\Program Files\Exact Audio Copy\FLAC\FLAC.EXE
Дополнительные параметры : -8 -V -T "ARTIST=%artist%" -T "ALBUM=%albumtitle%" -T "DATE=%year%" -T "GENRE=%genre%" -T "COMMENT=ripped by izia1956" %source%


TOC извлечённого CD

Трек | Старт | Длительность | Начальный сектор | Конечный сектор
––––––––––––––––––––––––––––––––––-
1 | 0:00.00 | 3:53.48 | 0 | 17522
2 | 3:53.48 | 4:20.48 | 17523 | 37070
3 | 8:14.21 | 4:56.48 | 37071 | 59318
4 | 13:10.69 | 5:02.48 | 59319 | 82016
5 | 18:13.42 | 4:00.48 | 82017 | 100064
6 | 22:14.15 | 5:48.48 | 100065 | 126212
7 | 28:02.63 | 4:06.48 | 126213 | 144710
8 | 32:09.36 | 4:29.48 | 144711 | 164933
9 | 36:39.09 | 5:24.48 | 164934 | 189281
10 | 42:03.57 | 4:29.48 | 189282 | 209504
11 | 46:33.30 | 4:50.48 | 209505 | 231302
12 | 51:24.03 | 5:24.48 | 231303 | 255650


Характеристики диапазона извлечения и сообщения об ошибках

Выбранный диапазон

Имя файла D:\BitComet\Jay Jesse Johnson - Set The Blues On Fire(2015)\Jay Jesse Johnson - Set The Blues On Fire.wav

Пиковый уровень 99.9 %
Скорость извлечения 2.9 X
Качество диапазона 100.0 %
CRC теста 09F9EE8D
CRC копии 09F9EE8D
Копирование… OK

Ошибок не произошло


AccurateRip: сводка

Трек 1 отсутствует в базе данных
Трек 2 отсутствует в базе данных
Трек 3 отсутствует в базе данных
Трек 4 отсутствует в базе данных
Трек 5 отсутствует в базе данных
Трек 6 отсутствует в базе данных
Трек 7 отсутствует в базе данных
Трек 8 отсутствует в базе данных
Трек 9 отсутствует в базе данных
Трек 10 отсутствует в базе данных
Трек 11 отсутствует в базе данных
Трек 12 отсутствует в базе данных

Ни одного трека нет в базе AccurateRip

Конец отчёта

==== Контрольная сумма отчёта C38969F15839053014C78B70913A2767F83B7483F58D277F8AAD37CE21243929 ====

Jay Jesse Johnson - Set The Blues On Fire (2015)


All thanks go to izia1956

>>> Jay Jesse Johnson in my Blog <<<

DOWNLOAD: