Tags
Language
Tags

Jay Hoggard - Rain Forest (1981) {Original Jazz Classics}

Posted By: tiburon
Jay Hoggard - Rain Forest (1981) {Original Jazz Classics}

Jay Hoggard - Rain Forest (1981) {Original Jazz Classics}
EAC 0.95b4 | FLAC tracks level 8 | Cue+Log+M3U | Full Scans 300dpi | 215MB + 5% Recovery
MP3 CBR 320 Kbps | 92MB + 5% Recovery
Genre: Jazz-Funk, Fusion, Post-Bop

Jay Hoggard's lone date for Contemporary (reissued as an OJC CD) was one of the vibraphonist's finest early sets. The music (all six songs are Hoggard originals) falls into the area of advanced hard bop. Chief among the sidemen are Chico Freeman (heard on tenor, soprano and bass clarinet), keyboardist Kenny Kirkland, and colorful percussionist Paulinho Da Costa; two songs utilize three vocalists, and there is a strong African feel to some of the ensembles.
Track List
01. Reverend Libra (Hoggard) - 5:31
02. Jammin' in the Sunshine (Hoggard) - 6:06
03. Sao Pablo (Hoggard) - 4:58
04. God Will Guide (Hoggard) - 8:40
05. The Guiding Spirit (Hoggard) - 7:29
06. Rain Forest (Hoggard) - 5:38

musicians
Jay Hoggard - vibraphone, marimba, balafon, tambourine, talking drum, maracas
Chico Freeman - tenor saxophone, soprano saxophone, bass clarinet
Kenny Kirkland - piano, clavinet, electric piano
John Koenig - guitar, cello
Roland Bautista - guitar
Francisco Centeno - bass
Paulinho Da Costa - percussion
Jose Goico - percussion
Sybil Thomas, Maxayn Lewis, Patryce Banks - vocals

Produced by John Koenig and Jay Hoggard


EAC extraction logfile from 17. May 2008, 1:08 for CD
Jay Hoggard / Rain Forest

Used drive : HL-DT-STCDRW/DVD GCC4482 Adapter: 1 ID: 0
Read mode : Secure with NO C2, accurate stream, disable cache
Read offset correction : 6
Overread into Lead-In and Lead-Out : No

Used output format : C:\Eac\Codecs\flac.exe (User Defined Encoder)
320 kBit/s
Additional command line options : -8 -V -T "artist=%a" -T "title=%t" -T "album=%g" -T "date=%y" -T "tracknumber=%n" -T "genre=%m" -T "comment=EAC Flac 1.1.2 -8" %s

Other options :
Fill up missing offset samples with silence : Yes
Delete leading and trailing silent blocks : No
Installed external ASPI interface


Track 1
Filename C:\Documents and Settings\jay\01 - Reverend Libra.wav

Pre-gap length 0:00:02.00

Peak level 100.0 %
Track quality 99.9 %
Test CRC E5334C26
Copy CRC E5334C26
Copy OK

Track 2
Filename C:\Documents and Settings\jay\02 - Jammin' In The Sunshine.wav

Pre-gap length 0:00:01.76

Peak level 100.0 %
Track quality 99.9 %
Test CRC 7A364883
Copy CRC 7A364883
Copy OK

Track 3
Filename C:\Documents and Settings\jay\03 - Sao Pablo.wav

Pre-gap length 0:00:01.50

Peak level 100.0 %
Track quality 100.0 %
Test CRC D5A91702
Copy CRC D5A91702
Copy OK

Track 4
Filename C:\Documents and Settings\jay\04 - God Will Guide.wav

Pre-gap length 0:00:01.13

Peak level 100.0 %
Track quality 100.0 %
Test CRC E5C82574
Copy CRC E5C82574
Copy OK

Track 5
Filename C:\Documents and Settings\jay\05 - The Guiding Spirit.wav

Pre-gap length 0:00:01.73

Peak level 100.0 %
Track quality 100.0 %
Test CRC 89E9144D
Copy CRC 89E9144D
Copy OK

Track 6
Filename C:\Documents and Settings\jay\06 - Rain Forest.wav

Pre-gap length 0:00:01.00

Peak level 100.0 %
Track quality 100.0 %
Test CRC 66E06478
Copy CRC 66E06478
Copy OK

No errors occured


End of status report


––––––––––––––––––––––––––––––––––––––––
Analyzed: Jay Hoggard / Rain Forest
––––––––––––––––––––––––––––––––––––––––

DR Peak RMS Duration Track
––––––––––––––––––––––––––––––––––––––––
DR14 0.00 dB -15.90 dB 5:31 01-Reverend Libra
DR14 0.00 dB -16.64 dB 6:07 02-Jammin' In The Sunshine
DR13 0.00 dB -15.81 dB 4:59 03-Sao Pablo
DR13 0.00 dB -17.98 dB 8:40 04-God Will Guide
DR14 0.00 dB -17.68 dB 7:29 05-The Guiding Spirit
DR16 0.00 dB -20.88 dB 5:39 06-Rain Forest
––––––––––––––––––––––––––––––––––––––––

Number of tracks: 6
Official DR value: DR14

Samplerate: 44100 Hz
Channels: 2
Bits per sample: 16
Bitrate: 647 kbps
Codec: FLAC
================================================================================

Jay Hoggard - Rain Forest (1981) {Original Jazz Classics}
Jay Hoggard - Rain Forest (1981) {Original Jazz Classics}
Jay Hoggard - Rain Forest (1981) {Original Jazz Classics}


Thanks to the original ripper