Subcategories

Jean-Luc Ponty - Civilized Evil (1980) {Atlantic Records}

Posted By: tiburon
Jean-Luc Ponty - Civilized Evil (1980) {Atlantic Records}

Jean-Luc Ponty - Civilized Evil (1980) {Atlantic Records}
EAC 0.99pb5 | FLAC tracks level 8 | Cue+Log+M3U | Full Scans 300dpi | 236MB + 5% Recovery
MP3 CBR 320 Kbps | 91MB + 5% Recovery
Genre: Fusion
Jean-Luc Ponty - Civilized Evil (1980) {Atlantic Records}

All of the titles here make some kind of reference to cosmic issues of good and evil on the planet Earth, but the suggestive wordplay doesn't make this music much different from that on Jean-Luc Ponty's previous Atlantic outings. Ponty plays with his accustomed fluid virtuosity; the five-piece group ranges from standard Ponty fusion to mild funk; the rhythm section is sometimes more grandly recorded than before; and occasionally, one can hear some embryonic sequenced structures that would be explored further on in the decade. But one still gets the overall impression that Ponty has been around this block a few too many times; what was once fresh and musical has ossified into formula.
Track List
1. Demagomania - 6:25
2. In Case We Survive - 4:06
3. Forms Of Life - 4:48
4. Peace Crusaders - 5:38
5. Happy Robots - 4:14
6. Shape Up Your Mind - 5:15
7. Good Guys, Bad Guys - 4:41
8. Once A Blue Planet - 4:02

musicians
Violin – Jean-Luc Ponty
Bass – Randy Jackson
Drums – Mark Craney
Keyboards – Chris Rhyne
Keyboards, Synthesizer Bass – Jean-Luc Ponty (tracks: 3)
Guitar – Joaquin Liévano
Guitar [Solos] – Daryl Stuermer (tracks: 5, 7)

Produced by Jean-Luc Ponty


Exact Audio Copy V0.99 prebeta 5 from 4. May 2009

EAC extraction logfile from 21. February 2010, 20:48

Jean-Luc Ponty / Civilized Evil

Used drive : PLEXTOR CD-R PREMIUM Adapter: 0 ID: 0

Read mode : Secure
Utilize accurate stream : Yes
Defeat audio cache : Yes
Make use of C2 pointers : No

Read offset correction : 30
Overread into Lead-In and Lead-Out : No
Fill up missing offset samples with silence : Yes
Delete leading and trailing silent blocks : No
Null samples used in CRC calculations : Yes
Used interface : Installed external ASPI interface
Gap handling : Appended to previous track

Used output format : User Defined Encoder
Selected bitrate : 768 kBit/s
Quality : High
Add ID3 tag : No
Command line compressor : C:\Program Files (x86)\FLAC\flac.exe
Additional command line options : -8 -V -T "ARTIST=%a" -T "TITLE=%t" -T "ALBUM=%g" -T "DATE=%y" -T "TRACKNUMBER=%n" -T "TOTALTRACKS=%x" -T "GENRE=%m" -T "ALBUM ARTIST=%v" -T "ALBUMARTIST=%v" -T "COMMENT=EAC V0.99 prebeta 5, Secure Mode, Test & Copy, Accurat


TOC of the extracted CD

Track | Start | Length | Start sector | End sector
––––––––––––––––––––––––––––-
1 | 0:00.32 | 6:28.03 | 32 | 29134
2 | 6:28.35 | 4:10.57 | 29135 | 47941
3 | 10:39.17 | 4:51.30 | 47942 | 69796
4 | 15:30.47 | 5:41.48 | 69797 | 95419
5 | 21:12.20 | 4:17.57 | 95420 | 114751
6 | 25:30.02 | 5:19.33 | 114752 | 138709
7 | 30:49.35 | 4:47.35 | 138710 | 160269
8 | 35:36.70 | 4:03.50 | 160270 | 178544


Track 1

Filename E:\temp\01 - Demagomania.wav

Pre-gap length 0:00:02.42

Peak level 94.0 %
Track quality 100.0 %
Test CRC A71A53B5
Copy CRC A71A53B5
Accurately ripped (confidence 6) [352BA0D6]
Copy OK

Track 2

Filename E:\temp\02 - In Case We Survive.wav

Pre-gap length 0:00:00.80

Peak level 87.8 %
Track quality 100.0 %
Test CRC 2E3BA4F5
Copy CRC 2E3BA4F5
Accurately ripped (confidence 6) [D6C3DE03]
Copy OK

Track 3

Filename E:\temp\03 - Forms of Life.wav

Pre-gap length 0:00:04.09

Peak level 70.9 %
Track quality 100.0 %
Test CRC 4329CE0A
Copy CRC 4329CE0A
Accurately ripped (confidence 6) [4169D342]
Copy OK

Track 4

Filename E:\temp\04 - Peace Crusaders.wav

Pre-gap length 0:00:02.26

Peak level 77.9 %
Track quality 100.0 %
Test CRC 7B57F611
Copy CRC 7B57F611
Accurately ripped (confidence 6) [7EC733E8]
Copy OK

Track 5

Filename E:\temp\05 - Happy Robots.wav

Pre-gap length 0:00:02.24

Peak level 97.7 %
Track quality 100.0 %
Test CRC AD58F156
Copy CRC AD58F156
Accurately ripped (confidence 6) [F2063CB9]
Copy OK

Track 6

Filename E:\temp\06 - Shape Up Your Mind.wav

Pre-gap length 0:00:00.40

Peak level 99.7 %
Track quality 99.9 %
Test CRC E4A72556
Copy CRC E4A72556
Accurately ripped (confidence 6) [8C35CE9F]
Copy OK

Track 7

Filename E:\temp\07 - Good Guys, Bad Guys.wav

Pre-gap length 0:00:02.24

Peak level 97.7 %
Track quality 100.0 %
Test CRC 717BD1E3
Copy CRC 717BD1E3
Accurately ripped (confidence 6) [67889AB6]
Copy OK

Track 8

Filename E:\temp\08 - Once A Blue Planet.wav

Pre-gap length 0:00:02.57

Peak level 65.3 %
Track quality 100.0 %
Test CRC 130D17A7
Copy CRC 130D17A7
Accurately ripped (confidence 6) [59EFF5ED]
Copy OK


All tracks accurately ripped

No errors occurred

End of status report


foobar2000 1.3.13 / Dynamic Range Meter 1.1.1
log date: 2020-01-14 22:32:09

––––––––––––––––––––––––––––––––––––––––
Analyzed: Jean-Luc Ponty / Civilized Evil
––––––––––––––––––––––––––––––––––––––––

DR Peak RMS Duration Track
––––––––––––––––––––––––––––––––––––––––
DR14 -0.53 dB -15.97 dB 6:28 01-Demagomania
DR15 -1.12 dB -19.22 dB 4:11 02-In Case We Survive
DR11 -2.98 dB -18.44 dB 4:51 03-Forms of Life
DR12 -2.16 dB -16.67 dB 5:42 04-Peace Crusaders
DR15 -0.20 dB -16.97 dB 4:18 05-Happy Robots
DR14 -0.02 dB -16.72 dB 5:19 06-Shape Up Your Mind
DR15 -0.20 dB -16.75 dB 4:47 07-Good Guys, Bad Guys
DR13 -3.70 dB -20.07 dB 4:04 08-Once A Blue Planet
––––––––––––––––––––––––––––––––––––––––

Number of tracks: 8
Official DR value: DR14

Samplerate: 44100 Hz
Channels: 2
Bits per sample: 16
Bitrate: 621 kbps
Codec: FLAC
================================================================================

Jean-Luc Ponty - Civilized Evil (1980) {Atlantic Records}
Jean-Luc Ponty - Civilized Evil (1980) {Atlantic Records}
Jean-Luc Ponty - Civilized Evil (1980) {Atlantic Records}


Thanks to the original ripper