Tags
Language
Tags

Jean Michel Jarre - Oxygene (1976)

Posted By: v3122
Jean Michel Jarre - Oxygene (1976)

Jean Michel Jarre - Oxygene (1976)
EAC | Flac(Image) + Cue + Log & MP3 CBR 320Kbps
1997 | Disques Dreyfus FDM 36140-2 | ~ 257 or 94 Mb | Artwork(jpg) -> 10 Mb
Ambient

~ Digitally remastered 96 kHz / 24 bits by Scott Hull, Masterdisk, New York. ~

Jean Michel Jarre, son of film composer Maurice Jarre, is one of the true pioneers of electronic music. Oxygène is one of the original e-music albums. It has withstood the test of time and the evolution of digital electronica. Jarre's compositional style and his rhythmic instincts were his strong points in 1976. While his popularity has escalated exponentially over the years, he never quite achieved the quality of this amazing recording. The innocence and freshness provide most of its charm. Jarre's techniques and ability provide the rest. This epic work will appeal to fans of Tonto's Expanding HeadBand, Tangerine Dream, Synergy, Kraftwerk, and Klaus Schulze.

by Jim Brenholts, allmusic
Jean Michel Jarre - Oxygene (1976)

Jean Michel Jarre - Oxygene (1976):

Jean Michel Jarre - Oxygene (1976)

Tracklist:

01. Oxygene, Part I [00:07:40]
02. Oxygene, Part II [00:08:08]
03. Oxygene, Part III [00:02:54]
04. Oxygene, Part IV [00:04:14]
05. Oxygene, Part V [00:10:23]
06. Oxygene, Part VI [00:06:20]

Exact Audio Copy V1.0 beta 6 from 9. April 2015

Отчёт EAC об извлечении, выполненном 17. мая 2015, 15:30

Jean Michel Jarre / Oxygene

Дисковод: ASUS DRW-24F1ST a Adapter: 1 ID: 0

Режим чтения : Достоверность
Использование точного потока : Да
Отключение кэша аудио : Да
Использование указателей C2 : Нет

Коррекция смещения при чтении : 6
Способность читать области Lead-in и Lead-out : Нет
Заполнение пропущенных сэмплов тишиной : Да
Удаление блоков с тишиной в начале и конце : Нет
При вычислениях CRC использовались нулевые сэмплы : Да
Интерфейс : Встроенный Win32-интерфейс для Win NT/2000
Обработка зазоров : Не обнаружено, добавлено к предыдущему треку

Выходной формат : Пользовательский кодировщик
Выбранный битрейт : 768 kBit/s
Качество : Высокий
Добавление ID3-тега : Нет
Утилита сжатия : C:\Program Files (x86)\Exact Audio Copy\FLAC\FLAC.EXE
Дополнительные параметры : -6 -V -T "ARTIST=%artist%" -T "TITLE=%title%" -T "ALBUM=%albumtitle%" -T "DATE=%year%" -T "TRACKNUMBER=%tracknr%" -T "GENRE=%genre%" -T "COMMENT=%comment%" -T "BAND=%albuminterpret%" -T "ALBUMARTIST=%albuminterpret%" -T "COMPOSER=%composer%" %haslyrics%–tag-from-file=LYRICS="%lyricsfile%"%haslyrics% -T "DISCNUMBER=%cdnumber%" -T "TOTALDISCS=%totalcds%" -T "TOTALTRACKS=%numtracks%" %hascover%–picture="%coverfile%"%hascover% %source% -o %dest%


TOC извлечённого CD

Трек | Старт | Длительность | Начальный сектор | Конечный сектор
––––––––––––––––––––––––––––––––––-
1 | 0:00.00 | 7:40.15 | 0 | 34514
2 | 7:40.15 | 8:08.52 | 34515 | 71166
3 | 15:48.67 | 2:54.58 | 71167 | 84274
4 | 18:43.50 | 4:14.55 | 84275 | 103379
5 | 22:58.30 | 10:23.67 | 103380 | 150171
6 | 33:22.22 | 6:20.60 | 150172 | 178731


Трек 1

Имя файла D:\Jean Michel Jarre\Masterdisk (1997, USA, New York City)\1976 - Oxygene\01 Oxygene, Part I.wav

Пиковый уровень 100.0 %
Скорость извлечения 2.0 X
Качество трека 100.0 %
CRC теста FEE0120D
CRC копии FEE0120D
Точное извлечение (достоверность 121) [C41243B3] (AR v2)
Копирование… OK

Трек 2

Имя файла D:\Jean Michel Jarre\Masterdisk (1997, USA, New York City)\1976 - Oxygene\02 Oxygene, Part II.wav

Пиковый уровень 100.0 %
Скорость извлечения 2.1 X
Качество трека 99.9 %
CRC теста A10DB21C
CRC копии A10DB21C
Точное извлечение (достоверность 121) [B9E96974] (AR v2)
Копирование… OK

Трек 3

Имя файла D:\Jean Michel Jarre\Masterdisk (1997, USA, New York City)\1976 - Oxygene\03 Oxygene, Part III.wav

Пиковый уровень 100.0 %
Скорость извлечения 2.3 X
Качество трека 100.0 %
CRC теста 8D7BC97A
CRC копии 8D7BC97A
Точное извлечение (достоверность 121) [AF2A7A5F] (AR v2)
Копирование… OK

Трек 4

Имя файла D:\Jean Michel Jarre\Masterdisk (1997, USA, New York City)\1976 - Oxygene\04 Oxygene, Part IV.wav

Пиковый уровень 100.0 %
Скорость извлечения 2.5 X
Качество трека 100.0 %
CRC теста 99B2651A
CRC копии 99B2651A
Точное извлечение (достоверность 121) [3F599512] (AR v2)
Копирование… OK

Трек 5

Имя файла D:\Jean Michel Jarre\Masterdisk (1997, USA, New York City)\1976 - Oxygene\05 Oxygene, Part V.wav

Пиковый уровень 100.0 %
Скорость извлечения 3.1 X
Качество трека 100.0 %
CRC теста 42BB31F1
CRC копии 42BB31F1
Точное извлечение (достоверность 120) [D73E77AB] (AR v2)
Копирование… OK

Трек 6

Имя файла D:\Jean Michel Jarre\Masterdisk (1997, USA, New York City)\1976 - Oxygene\06 Oxygene, Part VI.wav

Пиковый уровень 100.0 %
Скорость извлечения 2.7 X
Качество трека 99.9 %
CRC теста AD8174B8
CRC копии AD8174B8
Точное извлечение (достоверность 121) [BFCC1FAB] (AR v2)
Копирование… OK


Все треки извлечены точно

Ошибок не произошло

Конец отчёта

–– CUETools DB Plugin V2.1.6

[CTDB TOCID: FVUvvi3duua5fJMnCT82Ojk9Xdc-] found
Submit result: already submitted
Track | CTDB Status
1 | (177/340) Accurately ripped
2 | (177/340) Accurately ripped
3 | (177/340) Accurately ripped
4 | (177/340) Accurately ripped
5 | (177/340) Accurately ripped
6 | (177/340) Accurately ripped



[CUETools log; Date: 25.02.2019 9:25:36; Version: 2.1.4]
[AccurateRip ID: 00097ea1-00322e70-37094f06] found.
Track [ CRC | V2 ] Status
01 [cc80433d|c41243b3] (114+189/870) Accurately ripped
02 [c5161620|b9e96974] (113+190/873) Accurately ripped
03 [488ddaac|af2a7a5f] (114+187/870) Accurately ripped
04 [edd9c07f|3f599512] (114+189/876) Accurately ripped
05 [1dbd4c0b|d73e77ab] (114+187/866) Accurately ripped
06 [15fd10f8|bfcc1fab] (113+188/858) Accurately ripped
Offsetted by -664:
01 [b9d574d1] (017/870) Accurately ripped
02 [5aef7ce7] (017/873) Accurately ripped
03 [29126a64] (017/870) Accurately ripped
04 [aac504b8] (017/876) Accurately ripped
05 [6146f12c] (017/866) Accurately ripped
06 [42317953] (016/858) Accurately ripped
Offsetted by 92:
01 [913e2210] (041/870) Accurately ripped
02 [90c8de9e] (041/873) Accurately ripped
03 [cbba4c98] (041/870) Accurately ripped
04 [7ae92034] (041/876) Accurately ripped
05 [6d76ea5d] (041/866) Accurately ripped
06 [70e44c14] (040/858) Accurately ripped
Offsetted by -18:
01 [1805c694] (000/870) No match (V2 was not tested)
02 [dc3df20e] (000/873) No match (V2 was not tested)
03 [468698ab] (000/870) No match (V2 was not tested)
04 [1349aa61] (000/876) No match (V2 was not tested)
05 [84d2de17] (000/866) No match (V2 was not tested)
06 [ef7d997c] (000/858) No match (V2 was not tested)

Track Peak [ CRC32 ] [W/O NULL] [ LOG ]
– 99,9 [FE706452] [9B5239FB]
01 99,9 [FEE0120D] [6DB111FD] CRC32
02 99,9 [A10DB21C] [69B7079D] CRC32
03 99,9 [8D7BC97A] [68120588] CRC32
04 99,9 [99B2651A] [28DC4234] CRC32
05 99,9 [42BB31F1] [C523DAFE] CRC32
06 99,9 [AD8174B8] [E8DF7ABF] CRC32


Jean Michel Jarre - Oxygene (1976)

All thanks go to the original releaser

Jean Michel Jarre in my Blog

Download Jean Michel Jarre - Oxygene (1976):