Subcategories
Tags
Language
Tags

Jean Michel Jarre - Equinoxe (1978) [Non-remastered]

Posted By: gribovar
Jean Michel Jarre - Equinoxe (1978) [Non-remastered]

Jean Michel Jarre - Equinoxe (1978) [Non-remastered]
EAC Rip | APE (image+.cue+log) - 226 MB | MP3 CBR 320 kbps (LAME 3.93) - 92 MB | Covers - 39 MB
Genre: Traditional Electronic, Progressive Electronic | RAR 3% Rec. | Label: Disques Dreyfus (FDM CD-83150)

As the follow-up album to Oxygene, Equinoxe offers the same mesmerizing affect, with rapid spinning sequencer washes and bubbling synthesizer portions all lilting back and forth to stardust scatterings of electronic pastiches. Using more than 13 different types of synthesizers, Jarre combines whirling soundscapes of multi-textured effects, passages, and sometimes suites to culminate interesting electronic atmospheres. Never repeating the same sounds twice, it is obvious that the science fiction hype of the late '70s played a large part in the making of this album. Computerized rhythms and keyboard-soaked transitions scurry by, replaced by even quicker, more illustrious ones soon after. There is always a pulsating beat or a fluttering tempo happening somewhere in each of the tracks, which are titled as a numbered sequence one to eight. Each track harbors its own energy and electronic fleetness, but none are identical in sound or pace. So much electronic color is added to every track that it is impossible to concentrate on any particular segment, resulting in waves of synth drowning the ears at high tide.

Tracklist:
01. Equinoxe Part 1
02. Equinoxe Part 2
03. Equinoxe Part 3
04. Equinoxe Part 4
05. Equinoxe Part 5
06. Equinoxe Part 6
07. Equinoxe Part 7
08. Equinoxe Part 8

Total time: 39:02

Exact Audio Copy V0.99 prebeta 5 from 4. May 2009

Отчёт EAC об извлечении, выполненном 20. апреля 2015, 16:56

Jean-Michel Jarre / Equinoxe

Дисковод: PIONEER DVD-RW DVR-110D Adapter: 0 ID: 2

Режим чтения : Достоверность
Использование точного потока : Да
Отключение кэша аудио : Да
Использование указателей C2 : Нет

Коррекция смещения при чтении : 48
Способность читать области Lead-in и Lead-out : Да
Заполнение пропущенных сэмплов тишиной : Да
Удаление блоков с тишиной в начале и конце : Нет
При вычислениях CRC использовались нулевые сэмплы : Да
Интерфейс : Встроенный Win32-интерфейс для Win NT/2000

Выходной формат : Внутренние WAV-операции
Формат сэмплов : 44.100 Гц; 16 бит; стерео


TOC извлечённого CD

Трек | Старт | Длительность | Начальный сектор | Конечный сектор
––––––––––––––––––––––––––––––––––-
1 | 0:00.32 | 2:25.63 | 32 | 10969
2 | 2:26.20 | 5:00.22 | 10970 | 33491
3 | 7:26.42 | 5:09.65 | 33492 | 56731
4 | 12:36.32 | 6:59.03 | 56732 | 88159
5 | 19:35.35 | 3:54.72 | 88160 | 105781
6 | 23:30.32 | 3:28.58 | 105782 | 121439
7 | 26:59.15 | 7:06.00 | 121440 | 153389
8 | 34:05.15 | 4:57.12 | 153390 | 175676


Характеристики диапазона извлечения и сообщения об ошибках

Выбранный диапазон

Имя файла M:\МУЗЫКА\Jean-Michel Jarre(blue face)\Equinoxe\Jean-Michel Jarre - Equinoxe.wav

Пиковый уровень 85.7 %
Качество диапазона 99.9 %
CRC теста D62DF997
CRC копии D62DF997
Копирование… OK

Ошибок не произошло


AccurateRip: сводка

Трек 1 точное извлечение (доверие 111) [2A2BF08B]
Трек 2 точное извлечение (доверие 109) [72BB5675]
Трек 3 точное извлечение (доверие 110) [9D3BE5CB]
Трек 4 точное извлечение (доверие 108) [17D4F278]
Трек 5 точное извлечение (доверие 109) [A7F730BB]
Трек 6 точное извлечение (доверие 107) [6412124E]
Трек 7 точное извлечение (доверие 108) [11ECE8F0]
Трек 8 точное извлечение (доверие 105) [93F4B252]

Все треки извлечены точно

Конец отчёта

[CUETools log; Date: 01.06.2021 17:38:46; Version: 2.1.4]
Pregap length 00:00:32.
[CTDB TOCID: sUbEdQwsPxr0sUw3VSrJHmj12C8-] found.
Track | CTDB Status
1 | (397/410) Accurately ripped
2 | (398/410) Accurately ripped
3 | (393/410) Accurately ripped
4 | (389/410) Accurately ripped
5 | (398/410) Accurately ripped
6 | (398/410) Accurately ripped
7 | (398/410) Accurately ripped
8 | (394/410) Accurately ripped
[AccurateRip ID: 000b60cb-004d9019-62092608] found.
Track [ CRC | V2 ] Status
01 [2a2bf08b|98585f19] (113+200/315) Accurately ripped
02 [72bb5675|dff5286b] (111+200/313) Accurately ripped
03 [9d3be5cb|0a238941] (112+200/314) Accurately ripped
04 [17d4f278|68e70c93] (110+200/312) Accurately ripped
05 [a7f730bb|68661f2e] (112+200/314) Accurately ripped
06 [6412124e|f1250eae] (109+200/311) Accurately ripped
07 [11ece8f0|b56ec065] (110+200/312) Accurately ripped
08 [93f4b252|9e7eff03] (107+200/309) Accurately ripped
Offsetted by 6:
01 [0455d692] (000/315) No match (V2 was not tested)
02 [35543e4b] (000/313) No match (V2 was not tested)
03 [f90600c3] (000/314) No match (V2 was not tested)
04 [0182bbf5] (000/312) No match (V2 was not tested)
05 [05b358a9] (000/314) No match (V2 was not tested)
06 [b18e5e53] (000/311) No match (V2 was not tested)
07 [38a9f3bf] (000/312) No match (V2 was not tested)
08 [b76f6ba8] (000/309) No match (V2 was not tested)

Track Peak [ CRC32 ] [W/O NULL] [ LOG ]
– 85,7 [D62DF997] [74698C21] CRC32
01 53,1 [86AE5015] [A976ED4B]
02 58,6 [F7820884] [A61399A0]
03 68,0 [2A9662AA] [0C98C023]
04 81,4 [CACFDA90] [7957CFAD]
05 85,7 [74E45B19] [98782464]
06 68,8 [E0A25E5A] [1CBEB64B]
07 59,7 [7588C33D] [0060D0FF]
08 56,5 [57CB3F0E] [271AA28A]

Thanks to frol1981

See also: