Tags
Language
Tags

Jeff Beck Group - Jeff Beck Group (1972) [2013, Sony Music Japan, SICP-30083]

Posted By: v3122
Jeff Beck Group - Jeff Beck Group (1972) [2013, Sony Music Japan, SICP-30083]

Jeff Beck Group - Jeff Beck Group (1972)
EAC | Flac(Image) + Cue + Log & MP3 CBR 320Kbps
2013 | Sony Music Japan, SICP-30083 | ~ 256 or 103 Mb | Scans(png) -> 151 Mb
Hard Rock / Blues Rock

Continuing with the same group lineup as on Rough and Ready, Jeff Beck Group was slagged off by critics for Steve Cropper's admittedly lazy production. However, several of the songs hold up masterfully, including the skronky "Ice Cream Cakes," the superlative redo of Don Nix's "Going Down," and the beautifully sad and wistful instrumental, "Definitely Maybe." Beware of early, poor-sounding versions.

by Tom Graves, AMG
Jeff Beck Group - Jeff Beck Group (1972):

Jeff Beck Group - Jeff Beck Group (1972) [2013, Sony Music Japan, SICP-30083]

Tracklist:

01. Ice Cream Cakes 05:42
02. Glad All Over 03:02
03. Tonight I'll Be Staying Here With You 05:00
04. Sugar Cane 04:09
05. I Can't Give Back The Love I Feel For You 02:46
06. Going Down 06:51
07. I Got To Have A Song 03:31
08. Highways 04:45
09. Definitely Maybe 05:03

Exact Audio Copy V1.0 beta 3 from 29. August 2011

EAC extraction logfile from 22. June 2014, 11:22

Jeff Beck Group / Jeff Beck Group BSCD2

Used drive : PLEXTOR BD-R PX-B950SA Adapter: 6 ID: 0

Read mode : Secure
Utilize accurate stream : Yes
Defeat audio cache : Yes
Make use of C2 pointers : No

Read offset correction : 6
Overread into Lead-In and Lead-Out : No
Fill up missing offset samples with silence : Yes
Delete leading and trailing silent blocks : No
Null samples used in CRC calculations : Yes
Used interface : Native Win32 interface for Win NT & 2000

Used output format : Internal WAV Routines
Sample format : 44.100 Hz; 16 Bit; Stereo


TOC of the extracted CD

Track | Start | Length | Start sector | End sector
––––––––––––––––––––––––––––-
1 | 0:00.00 | 5:42.72 | 0 | 25721
2 | 5:42.72 | 3:02.48 | 25722 | 39419
3 | 8:45.45 | 5:00.20 | 39420 | 61939
4 | 13:45.65 | 4:09.52 | 61940 | 80666
5 | 17:55.42 | 2:46.08 | 80667 | 93124
6 | 20:41.50 | 6:51.27 | 93125 | 123976
7 | 27:33.02 | 3:31.40 | 123977 | 139841
8 | 31:04.42 | 4:45.20 | 139842 | 161236
9 | 35:49.62 | 5:03.23 | 161237 | 183984


Range status and errors

Selected range

Filename C:\Users\Meijin\Desktop\ALLexxess\Jeff Beck\1972 Jeff Beck Group (BSCD2 Sony Music Japan 2013)\Jeff Beck Group - Jeff Beck Group BSCD2.wav

Peak level 100.0 %
Extraction speed 6.7 X
Range quality 99.9 %
Test CRC 2FFD1A58
Copy CRC 2FFD1A58
Copy OK

No errors occurred


AccurateRip summary

Track 1 cannot be verified as accurate (confidence 15) [8AFA6A5F], AccurateRip returned [BFBF7D68] (AR v2)
Track 2 cannot be verified as accurate (confidence 15) [5E417B54], AccurateRip returned [CDEEC2BE] (AR v2)
Track 3 cannot be verified as accurate (confidence 15) [07176C6C], AccurateRip returned [DA74CA45] (AR v2)
Track 4 cannot be verified as accurate (confidence 15) [1C62871D], AccurateRip returned [5B1E9368] (AR v2)
Track 5 cannot be verified as accurate (confidence 15) [2EDE6D19], AccurateRip returned [E6543700] (AR v2)
Track 6 cannot be verified as accurate (confidence 15) [3FF925D8], AccurateRip returned [1341DB08] (AR v2)
Track 7 cannot be verified as accurate (confidence 15) [327DE7CF], AccurateRip returned [B02F2FA4] (AR v2)
Track 8 cannot be verified as accurate (confidence 14) [34F6F0F0], AccurateRip returned [028EF766] (AR v2)
Track 9 cannot be verified as accurate (confidence 15) [AC345443], AccurateRip returned [81C40FC8] (AR v2)

No tracks could be verified as accurate
You may have a different pressing from the one(s) in the database

End of status report

Jeff Beck Group - Jeff Beck Group (1972) [2013, Sony Music Japan, SICP-30083]

All thanks go to ALLexxess