Subcategories

Jennifer Rush - Very Best Of: The EMI/Virgin Years (2010) 2CD Edition [Re-Up]

Posted By: Designol
Jennifer Rush - Very Best Of: The EMI/Virgin Years (2010) 2CD Edition [Re-Up]

Jennifer Rush - Very Best Of: The EMI/Virgin Years (2010) 2CD Edition
EAC | FLAC | Image (Cue&Log) ~ 1 Gb | Mp3 (CBR320) ~ 352 Mb | Scans included
Pop, Pop/Rock, Soft Rock | Label: EMI/Electrola/Virgin | # 50999 6 29939 2 0 | 02:30:16

Double CD collection featuring top material & hits from her years at EMI/Virgin. Includes previously unreleased versions by: The Power of Love, Ring of Ice, Destiny, Never Say Never, A Broken Heart and other.

While virtually unknown in the U.S., pop singer Jennifer Rush achieved superstar status as an expatriate in Europe, selling millions of records and releasing a string of hit singles notable for their booming, dance-rock arrangements and Rush's powerful voice. Born Heidi Stern in New York City, Rush's father was an opera singer and her mother was a pianist. At the age of nine, she moved to Germany with her family, returning in her teens to the States. In 1982, she returned to Germany with her father to pursue a singing career, signing a deal with CBS/Columbia. Changing her name to Jennifer Rush, she released a series of songs that made her a star in Europe, including "Into My Dreams," "Come Give Me Your Hand," "25 Lovers," and "Ring of Ice." In 1985, Rush scored a massive European hit with "The Power of Love," which became one of the longest-running chart-toppers in U.K. history. The song, which she also co-wrote, was packaged with several of her other European hits for her U.S. debut Jennifer Rush. Released as a single, "The Power of Love" failed to duplicate its success upon its stateside release, only reaching number 57. Instead, versions of the song by Laura Branigan and Celine Dion hit the American Top 40 (the latter hitting number one for a month in 1994). It wasn't until her third U.S. release, Heart Over Mind, that Rush reached the Top 40 as an artist with her duet with Elton John, "Flames of Paradise," reaching number 37 in 1987. She continued to retain a large European following throughout the rest of the '80s and '90s, collaborating with writers such as Desmond Child and Diane Warren and performing with high-profile acts like Michael Bolton and Placido Domingo. Despite selling millions of albums abroad, most of her albums have not been released in the U.S.

Tom Demalon, Allmusic.com

Jennifer Rush - Very Best Of: The EMI/Virgin Years (2010) 2CD Edition [Re-Up]



Tracklist:

CD1:

01. The Power Of Love (Special Edit Version - Previously Unreleased) (03:35)
02. Tears In The Rain (04:53)
03. Ring Of Ice (Special Edit Version) (03:30)
04. Never Say Never (Long Version - Previously Unreleased) (04:07)
05. Who Wants To Live Forever (with Brian May) (03:59)
06. Destiny (Special Edit Version) (03:55)
07. Timeless Love (03:57)
08. I Can't Say No (03:29)
09. Heart Over Mind (04:28)
10. I Come Undone (03:59)
11. Piano In The dark (London Mix) (03:39)
12. Hero Of A Fool (04:07)
13. The Last Day Of Summer (04:11)
14. Everything (04:06)
15. Nights In White Satin (04:28)
16. Nunca Digas Nunca (Never Say Never) (03:40)
17. Ya Que Te Tengo A Ti (Now That I Found You) (04:50)
18. Amor Sin Final (Timeless Love) (03:48)

CD2:

01. 25 Lovers (03:54)
02. Out Of My Hands (03:57)
03. A Broken Heart (04:07)
04. Credo (Edit Version) (03:58)
05. Vision Of You (04:29)
06. All I Want Is You (03:56)
07. Crazy 'Bout You (04:07)
08. Sweet Thing (03:56)
09. You'll Never Catch Me Dreaming (04:19)
10. Fortress (05:04)
11. Room #8 (Long Version) (03:58)
12. Now That I Found You (04:51)
13. I'm In It For Love (04:42)
14. The Flame (05:42)
15. Ave Maria (05:08)
16. The End Of A Jorney (03:03)
17. Who Wants To Live Forever (Solo Version) (03:58)
18. Credo (Spanish Version) (04:08)


Exact Audio Copy V0.99 prebeta 5 from 4. May 2009

Отчёт EAC об извлечении, выполненном 4. мая 2010, 17:37

Jennifer Rush / The Very Best Of - The EMI/Virgin Years - CD1

Дисковод: PIONEER DVD-RW DVR-112D Adapter: 1 ID: 0

Режим чтения : Достоверность
Использование точного потока : Да
Отключение кэша аудио : Да
Использование указателей C2 : Нет

Коррекция смещения при чтении : 48
Способность читать области Lead-in и Lead-out : Нет
Заполнение пропущенных сэмплов тишиной : Да
Удаление блоков с тишиной в начале и конце : Нет
При вычислениях CRC использовались нулевые сэмплы : Да
Интерфейс : Установленный внешний ASPI-интерфейс

Выходной формат : Внутренние WAV-операции
Формат сэмплов : 44.100 Гц; 16 бит; стерео


TOC извлечённого CD

Трек | Старт | Длительность | Начальный сектор | Конечный сектор
––––––––––––––––––––––––––––––––––-
1 | 0:00.00 | 3:36.66 | 0 | 16265
2 | 3:36.66 | 4:53.71 | 16266 | 38311
3 | 8:30.62 | 3:31.43 | 38312 | 54179
4 | 12:02.30 | 4:10.53 | 54180 | 72982
5 | 16:13.08 | 4:01.37 | 72983 | 91094
6 | 20:14.45 | 3:57.22 | 91095 | 108891
7 | 24:11.67 | 3:58.56 | 108892 | 126797
8 | 28:10.48 | 3:31.16 | 126798 | 142638
9 | 31:41.64 | 4:30.40 | 142639 | 162928
10 | 36:12.29 | 4:01.28 | 162929 | 181031
11 | 40:13.57 | 3:40.17 | 181032 | 197548
12 | 43:53.74 | 4:09.24 | 197549 | 216247
13 | 48:03.23 | 4:13.15 | 216248 | 235237
14 | 52:16.38 | 4:07.68 | 235238 | 253830
15 | 56:24.31 | 4:30.21 | 253831 | 274101
16 | 60:54.52 | 3:42.28 | 274102 | 290779
17 | 64:37.05 | 4:53.01 | 290780 | 312755
18 | 69:30.06 | 3:48.08 | 312756 | 329863


Характеристики диапазона извлечения и сообщения об ошибках

Выбранный диапазон

Имя файла H:\torrents\раздачи\аудио\Jennifer Rush Best 2010\Jennifer Rush - The Very Best Of - The EMI Virgin Years - CD1\Jennifer Rush - The Very Best Of - The EMI Virgin Years - CD1.wav

Пиковый уровень 99.8 %
Качество диапазона 99.8 %
CRC копии 08FC93F9
Копирование… OK

Ошибок не произошло


AccurateRip: сводка

Трек 1 нет в базе данных
Трек 2 нет в базе данных
Трек 3 нет в базе данных
Трек 4 нет в базе данных
Трек 5 нет в базе данных
Трек 6 нет в базе данных
Трек 7 нет в базе данных
Трек 8 нет в базе данных
Трек 9 нет в базе данных
Трек 10 нет в базе данных
Трек 11 нет в базе данных
Трек 12 нет в базе данных
Трек 13 нет в базе данных
Трек 14 нет в базе данных
Трек 15 нет в базе данных
Трек 16 нет в базе данных
Трек 17 нет в базе данных
Трек 18 нет в базе данных

Ни одного трека нет в базе AccurateRip

Конец отчёта

[CUETools log; Date: 21.06.2017 17:15:11; Version: 2.1.4]
[CTDB TOCID: 4z5_NqX0.eqkg9EsS2tjSZIwq8o-] found.
Track | CTDB Status
1 | (2/2) Accurately ripped
2 | (2/2) Accurately ripped
3 | (2/2) Accurately ripped
4 | (2/2) Accurately ripped
5 | (2/2) Accurately ripped
6 | (2/2) Accurately ripped
7 | (2/2) Accurately ripped
8 | (2/2) Accurately ripped
9 | (2/2) Accurately ripped
10 | (2/2) Accurately ripped
11 | (2/2) Accurately ripped
12 | (2/2) Accurately ripped
13 | (2/2) Accurately ripped
14 | (2/2) Accurately ripped
15 | (2/2) Accurately ripped
16 | (2/2) Accurately ripped
17 | (2/2) Accurately ripped
18 | (2/2) Accurately ripped
[AccurateRip ID: 002f62d6-0278b584-0f112e12] found.
Track [ CRC | V2 ] Status
01 [3d3e3a9c|094459bd] (1+0/1) Accurately ripped
02 [63cc7f2e|9efbd827] (1+0/1) Accurately ripped
03 [a3fb1aed|cc04f3a0] (1+0/1) Accurately ripped
04 [5cc736d9|1f9614ee] (1+0/1) Accurately ripped
05 [2536b35c|503ab2b7] (1+0/1) Accurately ripped
06 [a3c77c42|0ab07fb5] (1+0/1) Accurately ripped
07 [9f370d14|7712e098] (1+0/1) Accurately ripped
08 [df6e85cb|47e7ec2f] (1+0/1) Accurately ripped
09 [1e1d31c6|30145761] (1+0/1) Accurately ripped
10 [68f3baba|b188c2d7] (1+0/1) Accurately ripped
11 [ad7f7be4|9e0e1b3b] (1+0/1) Accurately ripped
12 [3feaa032|7f60b623] (1+0/1) Accurately ripped
13 [7ba70b91|f25f90bc] (1+0/1) Accurately ripped
14 [1909b6d0|88f7a677] (1+0/1) Accurately ripped
15 [6714874c|a01beaf6] (1+0/1) Accurately ripped
16 [61f94545|bc9838a6] (1+0/1) Accurately ripped
17 [4d79fe2d|4fb01ad5] (1+0/1) Accurately ripped
18 [4c89e285|a404cb86] (1+0/1) Accurately ripped

Track Peak [ CRC32 ] [W/O NULL] [ LOG ]
– 99,8 [08FC93F9] [4C451636] CRC32
01 99,8 [9044FD52] [38E73913]
02 99,8 [7D015BE0] [5A735481]
03 99,8 [071A1A22] [1CEDBF86]
04 99,8 [3CE9A7ED] [5132A5CA]
05 99,8 [95AF3395] [D00C3D9D]
06 99,8 [2652CFB2] [839CBFDB]
07 99,8 [DD40F073] [3223C567]
08 99,8 [3D52AF1C] [8B1891A4]
09 99,8 [192131D7] [1F8CD6D8]
10 99,8 [28D97BC9] [DC18DFE3]
11 99,8 [95AB4FD4] [36FCCDDE]
12 99,8 [C3BA7AF3] [35483559]
13 99,8 [DB929923] [B2A1331B]
14 99,8 [501A8C75] [63997797]
15 99,8 [547F4FDE] [CA88DDA1]
16 99,8 [7A6DF6D6] [EFFD7610]
17 99,8 [E6E5B21F] [43A16A64]
18 99,8 [358013BB] [962ED710]

foobar2000 1.2 / Dynamic Range Meter 1.1.1
log date: 2013-03-16 00:12:36

––––––––––––––––––––––––––––––––––––––––
Analyzed: Jennifer Rush / The Very Best Of - The EMI/Virgin Years - CD1
––––––––––––––––––––––––––––––––––––––––

DR Peak RMS Duration Track
––––––––––––––––––––––––––––––––––––––––
DR8 -0.01 dB -10.76 dB 3:37 01-The Power Of Love (Special Edit Version - Previously Unreleased)
DR9 -0.01 dB -10.65 dB 4:54 02-Tears In The Rain
DR8 -0.01 dB -9.70 dB 3:32 03-Ring Of Ice (Special Edit Version)
DR8 -0.01 dB -9.40 dB 4:11 04-Never Say Never (Long Version - Previously Unreleased)
DR8 -0.01 dB -10.44 dB 4:01 05-Who Wants To Live Forever (with Brian May)
DR9 -0.01 dB -10.31 dB 3:57 06-Destiny (Special Edit Version)
DR8 -0.01 dB -10.52 dB 3:59 07-Timeless Love
DR9 -0.01 dB -9.88 dB 3:31 08-I Can't Say No
DR9 -0.01 dB -9.76 dB 4:31 09-Heart Over Mind
DR8 -0.01 dB -9.80 dB 4:01 10-I Come Undone
DR9 -0.01 dB -10.94 dB 3:40 11-Piano In The dark (London Mix)
DR9 -0.01 dB -11.54 dB 4:09 12-Hero Of A Fool
DR9 -0.01 dB -11.10 dB 4:13 13-The Last Day Of Summer
DR9 -0.01 dB -10.79 dB 4:08 14-Everything
DR8 -0.01 dB -10.76 dB 4:30 15-Nights In White Satin
DR8 -0.01 dB -9.71 dB 3:42 16-Nunca Digas Nunca (Never Say Never)
DR9 -0.01 dB -10.82 dB 4:53 17-Ya Que Te Tengo A Ti (Now That I Found You)
DR7 -0.01 dB -10.27 dB 3:48 18-Amor Sin Final (Timeless Love)
––––––––––––––––––––––––––––––––––––––––

Number of tracks: 18
Official DR value: DR8

Samplerate: 44100 Hz
Channels: 2
Bits per sample: 16
Bitrate: 960 kbps
Codec: FLAC
================================================================================


Exact Audio Copy V0.99 prebeta 5 from 4. May 2009

Отчёт EAC об извлечении, выполненном 4. мая 2010, 19:15

Jennifer Rush / The very Best Of - The EMI/Virgin Years CD2

Дисковод: PIONEER DVD-RW DVR-112D Adapter: 1 ID: 0

Режим чтения : Достоверность
Использование точного потока : Да
Отключение кэша аудио : Да
Использование указателей C2 : Нет

Коррекция смещения при чтении : 48
Способность читать области Lead-in и Lead-out : Нет
Заполнение пропущенных сэмплов тишиной : Да
Удаление блоков с тишиной в начале и конце : Нет
При вычислениях CRC использовались нулевые сэмплы : Да
Интерфейс : Установленный внешний ASPI-интерфейс

Выходной формат : Внутренние WAV-операции
Формат сэмплов : 44.100 Гц; 16 бит; стерео


TOC извлечённого CD

Трек | Старт | Длительность | Начальный сектор | Конечный сектор
––––––––––––––––––––––––––––––––––-
1 | 0:00.00 | 3:55.12 | 0 | 17636
2 | 3:55.12 | 3:59.12 | 17637 | 35573
3 | 7:54.24 | 4:08.46 | 35574 | 54219
4 | 12:02.70 | 4:00.11 | 54220 | 72230
5 | 16:03.06 | 4:30.57 | 72231 | 92537
6 | 20:33.63 | 3:57.73 | 92538 | 110385
7 | 24:31.61 | 4:09.11 | 110386 | 129071
8 | 28:40.72 | 3:58.10 | 129072 | 146931
9 | 32:39.07 | 4:21.42 | 146932 | 166548
10 | 37:00.49 | 5:05.06 | 166549 | 189429
11 | 42:05.55 | 4:00.09 | 189430 | 207438
12 | 46:05.64 | 4:52.50 | 207439 | 229388
13 | 50:58.39 | 4:42.57 | 229389 | 250595
14 | 55:41.21 | 5:44.45 | 250596 | 276440
15 | 61:25.66 | 5:10.41 | 276441 | 299731
16 | 66:36.32 | 3:05.43 | 299732 | 313649
17 | 69:42.00 | 4:01.06 | 313650 | 331730
18 | 73:43.06 | 4:08.64 | 331731 | 350394


Характеристики диапазона извлечения и сообщения об ошибках

Выбранный диапазон

Имя файла H:\torrents\раздачи\аудио\Jennifer Rush Best 2010\Jennifer Rush - The very Best Of - The EMI Virgin Years - CD2\Jennifer Rush - The very Best Of - The EMI Virgin Years CD2.wav

Пиковый уровень 99.8 %
Качество диапазона 99.7 %
CRC копии EEE892CF
Копирование… OK

Ошибок не произошло


AccurateRip: сводка

Трек 1 нет в базе данных
Трек 2 нет в базе данных
Трек 3 нет в базе данных
Трек 4 нет в базе данных
Трек 5 нет в базе данных
Трек 6 нет в базе данных
Трек 7 нет в базе данных
Трек 8 нет в базе данных
Трек 9 нет в базе данных
Трек 10 нет в базе данных
Трек 11 нет в базе данных
Трек 12 нет в базе данных
Трек 13 нет в базе данных
Трек 14 нет в базе данных
Трек 15 нет в базе данных
Трек 16 нет в базе данных
Трек 17 нет в базе данных
Трек 18 нет в базе данных

Ни одного трека нет в базе AccurateRip

Конец отчёта

[CUETools log; Date: 21.06.2017 17:15:30; Version: 2.1.4]
[CTDB TOCID: s3dav7F4.3Bv6WGQtwcVHmRhpYI-] found.
Track | CTDB Status
1 | (2/2) Accurately ripped
2 | (2/2) Accurately ripped
3 | (2/2) Accurately ripped
4 | (2/2) Accurately ripped
5 | (2/2) Accurately ripped
6 | (2/2) Accurately ripped
7 | (2/2) Accurately ripped
8 | (2/2) Accurately ripped
9 | (2/2) Accurately ripped
10 | (2/2) Accurately ripped
11 | (2/2) Accurately ripped
12 | (2/2) Accurately ripped
13 | (2/2) Accurately ripped
14 | (2/2) Accurately ripped
15 | (2/2) Accurately ripped
16 | (2/2) Accurately ripped
17 | (2/2) Accurately ripped
18 | (2/2) Accurately ripped
[AccurateRip ID: 0031f4d6-029feb27-11123f12] found.
Track [ CRC | V2 ] Status
01 [3e78dd0e|f0dd5736] (1+0/1) Accurately ripped
02 [8c4b6b7f|019b6531] (1+0/1) Accurately ripped
03 [44b96597|2403ea25] (1+0/1) Accurately ripped
04 [f0264f6a|91711526] (1+0/1) Accurately ripped
05 [41ae9d6d|2e70f74d] (1+0/1) Accurately ripped
06 [39245811|a3b116c2] (1+0/1) Accurately ripped
07 [769d850b|ac449dc4] (1+0/1) Accurately ripped
08 [79e61ec7|81372926] (1+0/1) Accurately ripped
09 [afbbb812|04ba7da4] (1+0/1) Accurately ripped
10 [97c7267e|54d335c8] (1+0/1) Accurately ripped
11 [8891355a|774cfeb9] (1+0/1) Accurately ripped
12 [525221d3|12153796] (1+0/1) Accurately ripped
13 [311b06a2|0df8116c] (1+0/1) Accurately ripped
14 [f3ac4645|5cb45f60] (1+0/1) Accurately ripped
15 [e17b95db|649aa056] (1+0/1) Accurately ripped
16 [e5c53fa2|35a278cc] (1+0/1) Accurately ripped
17 [39da4042|217a373f] (1+0/1) Accurately ripped
18 [1c7c88ee|8c16ac82] (1+0/1) Accurately ripped

Track Peak [ CRC32 ] [W/O NULL] [ LOG ]
– 99,8 [EEE892CF] [A8393F52] CRC32
01 99,8 [57ABCE98] [F64BFF1C]
02 99,8 [59AD29B6] [1CA9ACEF]
03 99,8 [7448587F] [0C42E92E]
04 99,8 [9B7E32C1] [1FFB85C6]
05 99,8 [EF9A77A5] [3A33BE76]
06 99,8 [39DD07F0] [E7F2F129]
07 99,8 [7514B2A2] [8C24CA9E]
08 99,8 [F0F4AC2B] [00D663DD]
09 99,8 [57687136] [6922FB5A]
10 99,8 [2D8C47BB] [11DE1BC8]
11 99,8 [710F6B80] [E6392827]
12 99,8 [900A7222] [C447D326]
13 99,8 [ACBD00D2] [DA730AF5]
14 99,8 [90212D2B] [80FA124F]
15 99,8 [438D8906] [6FB78847]
16 99,8 [4B7F27A0] [BED41D30]
17 99,8 [963352D6] [8D4A206F]
18 99,8 [7206FDEC] [E7D8AAFB]

foobar2000 1.2 / Dynamic Range Meter 1.1.1
log date: 2013-03-16 00:13:04

––––––––––––––––––––––––––––––––––––––––
Analyzed: Jennifer Rush / The very Best Of - The EMI/Virgin Years CD2
––––––––––––––––––––––––––––––––––––––––

DR Peak RMS Duration Track
––––––––––––––––––––––––––––––––––––––––
DR9 -0.01 dB -10.40 dB 3:55 01-25 Lovers
DR9 -0.01 dB -9.61 dB 3:59 02-Out Of My Hands
DR10 -0.01 dB -13.52 dB 4:09 03-A Broken Heart
DR8 -0.01 dB -10.12 dB 4:00 04-Credo (Edit Version)
DR10 -0.01 dB -11.85 dB 4:31 05-Vision Of You
DR8 -0.01 dB -10.57 dB 3:58 06-All I Want Is You
DR10 -0.01 dB -11.02 dB 4:09 07-Crazy 'Bout You
DR8 -0.01 dB -9.72 dB 3:58 08-Sweet Thing
DR9 -0.01 dB -12.15 dB 4:22 09-You'll Never Catch Me Dreaming
DR9 -0.01 dB -10.75 dB 5:05 10-Fortress
DR8 -0.01 dB -9.41 dB 4:00 11-Room #8 (Long Version)
DR9 -0.01 dB -11.14 dB 4:53 12-Now That I Found You
DR8 -0.01 dB -10.01 dB 4:43 13-I'm In It For Love
DR9 -0.01 dB -11.83 dB 5:45 14-The Flame
DR9 -0.01 dB -12.57 dB 5:11 15-Ave Maria
DR8 -0.01 dB -11.01 dB 3:06 16-The End Of A Jorney
DR8 -0.01 dB -10.68 dB 4:01 17-Who Wants To Live Forever (solo Version)
DR9 -0.01 dB -10.78 dB 4:09 18-Credo (Spanish Version)
––––––––––––––––––––––––––––––––––––––––

Number of tracks: 18
Official DR value: DR9

Samplerate: 44100 Hz
Channels: 2
Bits per sample: 16
Bitrate: 952 kbps
Codec: FLAC
================================================================================

Jennifer Rush - Very Best Of: The EMI/Virgin Years (2010) 2CD Edition [Re-Up]

All thanks to original releaser - shar-pee

More interesting music in My Blog