Tags
Language
Tags

Jerusalem Quartet - Debussy & Ravel: String Quartets (2018)

Posted By: tirexiss
Jerusalem Quartet - Debussy & Ravel: String Quartets (2018)

Jerusalem Quartet - Debussy & Ravel: String Quartets (2018)

EAC | FLAC (image+.cue, log) | Covers Included | 53:24 | 280 MB
Genre: Classical | Label: Harmonia Mundi | Catalog: HMM 902304

The String Quartet in G minor of Claude Debussy and the String Quartet in F major of Maurice Ravel are frequently paired because of their formal similarities, their shared fin de siècle melancholy, and comparable technical demands, and they have been treated as companion pieces on numerous albums. Debussy composed his string quartet in 1893, and Ravel structured his work along similar lines, finishing it in 1903, so in spite of the decade that passed between the works, there was a conscious connection that was reinforced by the composers' mutual admiration. This 2018 Harmonia Mundi release by the Jerusalem Quartet primarily marks the centennial of Debussy's death, and is part of the label's efforts to honor the composer with first-rate recordings of his key works. The Jerusalem Quartet's playing on this CD is warm and expressive, with smooth phrasing and a textural lushness that suggests the feeling of impressionism without purposely blurring the music. The Ravel shares the Debussy quartet's poignant mood and rich tone, though the performance has more of an edge, particularly in the pizzicato sections of the second movement and the energetic finale. The reproduction is clear and resonant with credible physical presence, thanks to Harmonia Mundi's balanced engineering.

Jerusalem Quartet - Debussy & Ravel: String Quartets (2018)

Track List:

CLAUDE DEBUSSY (1862-1918)
String Quartet op.10
G minor | sol mineur | g-Moll
1. I. Animé et très décidé 6’35
2. II. Assez vif et bien rythmé 3’56
3. III. Andantino, doucement expressif 7’47
4. IV. Très modéré 7’09

MAURICE RAVEL (1875-1937)
String Quartet O 35
F major | Fa majeur | F-Dur
5. I. Allegro moderato 8’18
6. II. Assez vif, très rythmé 5’57
7. III. Très lent 8’08
8. IV. Vif et agité 5’34

Performers:
Jerusalem Quartet:
Alexander Pavlovsky (violin)
Sergei Bresler (violin)
Ori Kam (viola)
Kyril Zlotnikov (cello)

Exact Audio Copy V1.3 from 2. September 2016

EAC extraction logfile from 20. February 2019, 23:04

Jerusalem Quartet / Debussy & Ravel Qts

Used drive : TSSTcorpDVDWBD SE-406AB Adapter: 1 ID: 2

Read mode : Secure
Utilize accurate stream : Yes
Defeat audio cache : Yes
Make use of C2 pointers : No

Read offset correction : 6
Overread into Lead-In and Lead-Out : No
Fill up missing offset samples with silence : Yes
Delete leading and trailing silent blocks : No
Null samples used in CRC calculations : Yes
Used interface : Native Win32 interface for Win NT & 2000

Used output format : User Defined Encoder
Selected bitrate : 1024 kBit/s
Quality : High
Add ID3 tag : No
Command line compressor : C:\Program Files (x86)\Exact Audio Copy\FLAC\FLAC.EXE
Additional command line options : -8 -e -p -V -T "ARTIST=%artist%" -T "TITLE=%title%" -T "ALBUM=%albumtitle%" -T "DATE=%year%" -T "TRACKNUMBER=%tracknr%" -T "GENRE=%genre%" -T "PERFORMER=%albuminterpret%" -T "COMPOSER=%composer%" %haslyrics%–tag-from-file=LYRICS="%lyricsfile%"%haslyrics% -T "ALBUMARTIST=%albumartist%" -T "DISCNUMBER=%cdnumber%" -T "TOTALDISCS=%totalcds%" -T "TOTALTRACKS=%numtracks%" -T "COMMENT=%comment%" %source% -o %dest%


TOC of the extracted CD

Track | Start | Length | Start sector | End sector
––––––––––––––––––––––––––––-
1 | 0:00.00 | 6:35.44 | 0 | 29668
2 | 6:35.44 | 3:56.25 | 29669 | 47393
3 | 10:31.69 | 7:47.65 | 47394 | 82483
4 | 18:19.59 | 7:09.34 | 82484 | 114692
5 | 25:29.18 | 8:18.51 | 114693 | 152093
6 | 33:47.69 | 5:57.70 | 152094 | 178938
7 | 39:45.64 | 8:08.35 | 178939 | 215573
8 | 47:54.24 | 5:34.09 | 215574 | 240632


Range status and errors

Selected range

Filename K:\Rips\Debussy, Ravel - String Quartets - Jerusalem Quartet\Jerusalem Quartet - Debussy & Ravel Qts.wav

Peak level 94.4 %
Extraction speed 1.9 X
Range quality 99.9 %
Test CRC 2A7AAEF9
Copy CRC 2A7AAEF9
Copy OK

No errors occurred


AccurateRip summary

Track 1 accurately ripped (confidence 2) [928920BD] (AR v2)
Track 2 accurately ripped (confidence 1) [E11B8306] (AR v2)
Track 3 accurately ripped (confidence 1) [088013FE] (AR v2)
Track 4 accurately ripped (confidence 1) [8281CA58] (AR v2)
Track 5 accurately ripped (confidence 1) [1C5FE302] (AR v2)
Track 6 accurately ripped (confidence 1) [FD03E6EC] (AR v2)
Track 7 accurately ripped (confidence 1) [040D838D] (AR v2)
Track 8 accurately ripped (confidence 1) [AEE4119A] (AR v2)

All tracks accurately ripped

End of status report

–– CUETools DB Plugin V2.1.6

[CTDB TOCID: BmjIaw2VC5xL1eGIwI3gR91zIug-] found
Submit result: BmjIaw2VC5xL1eGIwI3gR91zIug- has been confirmed
Track | CTDB Status
1 | (17/17) Accurately ripped
2 | (17/17) Accurately ripped
3 | (17/17) Accurately ripped
4 | (17/17) Accurately ripped
5 | (17/17) Accurately ripped
6 | (17/17) Accurately ripped
7 | (17/17) Accurately ripped
8 | (17/17) Accurately ripped


==== Log checksum A9339C0FB28B7FDBCBE168D3CB7CB8FC548B0C1CFB739A28C31A8470741EF321 ====

Thanks to the Original ripper (unknown)!

Download: