Tags
Language
Tags

Jerusalem Quartet - Haydn: String Quartets, Vol. 2 (2011)

Posted By: tirexiss
Jerusalem Quartet - Haydn: String Quartets, Vol. 2 (2011)

Jerusalem Quartet - Haydn: String Quartets, Vol. 2 (2011)
EAC | FLAC (image+.cue, log) | Covers Included | 01:02:27 | 340 MB
Genre: Classical | Label: Harmonia Mundi | Catalog: HMC902030

Although the initial Harmonia Mundi release of the Jerusalem Quartet's performances of Haydn's string quartets was not described as the first volume of a series, the second volume is prominently labeled as such, suggesting that the first disc was so successful that label decided to release a follow-up to beef-up its Haydn catalog for the 200th anniversary of the composer's death in 2009. Any listener who enjoyed the group's first volume will surely enjoy the second. As always with the group's releases, the playing is first rate. The Jerusalem Quartet has a warm but focused tone, a rich but incisive sound, a tight but flexible ensemble, and a wholly cogent approach to rhythm and tempo; these are model quartet performances. As in the earlier releaase, the group's interpretations are deeply expressive. In the slow movements of Op. 33/3, and particularly of Op. 76/5, they articulate passionate emotions that listeners might not have suspected were in the music. Listeners who feel that Haydn's music is emotional without being overtly expressive may find that the Jerusalem Quartet's interpretations cross the line into sentimentality. Therefore, listeners unfamiliar with the Jerusalem's first volume may want to sample this one before committing. Harmonia Mundi's 2009 digital recording is clear, clean, and evocative.

Jerusalem Quartet - Haydn: String Quartets, Vol. 2 (2011)

Track List:

String Quartet, Op. 20 / 5 22:54
1. I. Allegro moderato 9:46
2. II. Menuet 4:59
3. III. Adagio 5:07
4. IV. Finale ("Fuga a 2 Soggetti") 3:02
String Quartet, Op. 33 / 3, 'The Bird' 20:05
5. I. Allegro moderato 9:08
6. II. Allegretto 2:54
7. III. Adagio 5:21
8. IV. Rondo. Presto 2:42
String Quartet, Op. 76 / 5 19:28
9. I. Allegretto 5:04
10. II. Largo cantabile e mesto 7:40
11. III. Menuetto (Allegro) 3:10
12. IV. Presto 3:34

Performers:
Jerusalem Quartet
Alexander Pavlovsky (1er violin)
Sergei Bresler (2e violin)
Amichai Grosz (alto)
Kyril Zlotnikov (violoncelle)

Exact Audio Copy V1.3 from 2. September 2016

EAC extraction logfile from 8. November 2018, 17:01

Jerusalem Quartet / String Quartets Vol. 02

Used drive : MATSHITADVD-RAM UJ8G6 Adapter: 1 ID: 0

Read mode : Secure
Utilize accurate stream : Yes
Defeat audio cache : Yes
Make use of C2 pointers : No

Read offset correction : 103
Overread into Lead-In and Lead-Out : No
Fill up missing offset samples with silence : Yes
Delete leading and trailing silent blocks : No
Null samples used in CRC calculations : Yes
Used interface : Native Win32 interface for Win NT & 2000

Used output format : User Defined Encoder
Selected bitrate : 1024 kBit/s
Quality : High
Add ID3 tag : No
Command line compressor : C:\Program Files (x86)\Exact Audio Copy\FLAC\FLAC.EXE
Additional command line options : -6 -V -T "ARTIST=%artist%" -T "TITLE=%title%" -T "ALBUM=%albumtitle%" -T "DATE=%year%" -T "TRACKNUMBER=%tracknr%" -T "GENRE=%genre%" -T "COMMENT=%comment%" -T "BAND=%albuminterpret%" -T "ALBUMARTIST=%albuminterpret%" -T "COMPOSER=%composer%" %haslyrics%–tag-from-file=LYRICS="%lyricsfile%"%haslyrics% -T "DISCNUMBER=%cdnumber%" -T "TOTALDISCS=%totalcds%" -T "TOTALTRACKS=%numtracks%" %hascover%–picture="%coverfile%"%hascover% %source% -o %dest%


TOC of the extracted CD

Track | Start | Length | Start sector | End sector
––––––––––––––––––––––––––––-
1 | 0:00.00 | 9:46.11 | 0 | 43960
2 | 9:46.11 | 4:59.51 | 43961 | 66436
3 | 14:45.62 | 5:07.48 | 66437 | 89509
4 | 19:53.35 | 3:02.04 | 89510 | 103163
5 | 22:55.39 | 9:08.18 | 103164 | 144281
6 | 32:03.57 | 2:54.04 | 144282 | 157335
7 | 34:57.61 | 5:21.33 | 157336 | 181443
8 | 40:19.19 | 2:42.10 | 181444 | 193603
9 | 43:01.29 | 5:04.38 | 193604 | 216441
10 | 48:05.67 | 7:40.29 | 216442 | 250970
11 | 55:46.21 | 3:10.01 | 250971 | 265221
12 | 58:56.22 | 3:34.43 | 265222 | 281314


Range status and errors

Selected range

Filename F:\Attente UP\Jerusalem Quartet - String Quartets Vol. 02.wav

Peak level 97.7 %
Extraction speed 4.1 X
Range quality 99.9 %
Test CRC A8EC92B7
Copy CRC A8EC92B7
Copy OK

No errors occurred


AccurateRip summary

Track 1 accurately ripped (confidence 27) [84576DC7] (AR v2)
Track 2 accurately ripped (confidence 27) [E6BE8F2F] (AR v2)
Track 3 accurately ripped (confidence 27) [D34042C5] (AR v2)
Track 4 accurately ripped (confidence 27) [84245872] (AR v2)
Track 5 accurately ripped (confidence 27) [6EE2C495] (AR v2)
Track 6 accurately ripped (confidence 27) [44F1DF49] (AR v2)
Track 7 accurately ripped (confidence 27) [C09ED403] (AR v2)
Track 8 accurately ripped (confidence 27) [7F02857F] (AR v2)
Track 9 accurately ripped (confidence 27) [51A27AFE] (AR v2)
Track 10 accurately ripped (confidence 27) [B2C5A9FB] (AR v2)
Track 11 accurately ripped (confidence 27) [D55574D6] (AR v2)
Track 12 accurately ripped (confidence 28) [D7011E88] (AR v2)

All tracks accurately ripped

End of status report

–– CUETools DB Plugin V2.1.6

[CTDB TOCID: NT1yudx6LMNTIr0MZ.F2wc4XdA8-] found
Submit result: NT1yudx6LMNTIr0MZ.F2wc4XdA8- has been confirmed
Track | CTDB Status
1 | (35/35) Accurately ripped
2 | (35/35) Accurately ripped
3 | (35/35) Accurately ripped
4 | (35/35) Accurately ripped
5 | (35/35) Accurately ripped
6 | (35/35) Accurately ripped
7 | (35/35) Accurately ripped
8 | (35/35) Accurately ripped
9 | (35/35) Accurately ripped
10 | (35/35) Accurately ripped
11 | (35/35) Accurately ripped
12 | (35/35) Accurately ripped


==== Log checksum DB4D0B41FBFC020FC3E71D5E7FC929FC526186657585480C6AF303015CA16CBA ====

Thanks to the Original ripper (unknown)!

Download: