Subcategories

Jim Hall & Bob Brookmeyer - Live at the North Sea Jazz Festival, 1979 (1999)

Posted By: Designol
Jim Hall & Bob Brookmeyer - Live at the North Sea Jazz Festival, 1979 (1999)

Jim Hall & Bob Brookmeyer - Live at the North Sea Jazz Festival, 1979 (1999)
XLD | FLAC | Tracks (Cue&Log) ~ 307 Mb | Mp3 (CBR320) ~ 178 Mb | Scans included | 01:10:33
Cool, Post-Bop, Guitar Jazz, Trombone Jazz | Label: Challenge | # CHR 70063

Released for the first time on this 1999 Challenge CD, this live set features the unusual duo of guitarist Jim Hall and valve trombonist Bob Brookmeyer, two-thirds of the 1957 Jimmy Giuffre Three. Although there are occasions when one of the musicians accompanies the other one, much of the time Hall and Brookmeyer function as equals, improvising together on a set of standards plus an ad-lib blues called "Sweet Basil." Their ability to improvise while thinking of the whole picture and their knack for spontaneously harmonizing really come in handy during this intriguing and frequently exciting outing. Among the selections reborn in the playing of Hall and Brookmeyer are John Lewis' "Skating in Central Park," "Body and Soul," "Darn That Dream," and "St. Thomas." A successful effort that should not have taken 20 years to release.

Review by Scott Yanow, Allmusic.com

Jim Hall & Bob Brookmeyer - Live at the North Sea Jazz Festival, 1979 (1999)



Jim Hall - guitar
Bob Brookmeyer - valve trombone

Recorded live at the North Sea Jazz Festival, The Hague (Holland) on July 14, 1979.

Tracklist:

01. Skating in Central Park (9:58)
02. I Hear a Rhapsody (8:20)
03. My Funny Valentine (8:24)
04. Body and Soul (10:36)
05. In a Sentimental Mood (9:45)
06. Sweet Basil (7:36)
07. Darn That Dream (8:36)
08. St. Thomas (7:18)


X Lossless Decoder version 20141129 (148.1)

XLD extraction logfile from 2015-03-20 19:52:18 -0400

Jim Hall / Live At The North Sea Jazz Festival

Used drive : MATSHITA DVD-R UJ-8A8 (revision HB14)
Media type : Pressed CD

Ripper mode : XLD Secure Ripper
Disable audio cache : OK for the drive with a cache less than 1375KiB
Make use of C2 pointers : NO
Read offset correction : 102
Max retry count : 100
Gap status : Analyzed, Appended (except HTOA)

TOC of the extracted CD
Track | Start | Length | Start sector | End sector
––––––––––––––––––––––––––––-
1 | 00:00:00 | 09:58:25 | 0 | 44874
2 | 09:58:25 | 08:20:02 | 44875 | 82376
3 | 18:18:27 | 08:23:48 | 82377 | 120149
4 | 26:42:00 | 10:35:46 | 120150 | 167820
5 | 37:17:46 | 09:44:69 | 167821 | 211689
6 | 47:02:40 | 07:36:35 | 211690 | 245924
7 | 54:39:00 | 08:36:00 | 245925 | 284624
8 | 63:15:00 | 07:18:12 | 284625 | 317486

AccurateRip Summary (DiscID: 00168186-00954539-5d108908)
Track 01 : OK (v2, confidence 3/3)
Track 02 : OK (v2, confidence 3/3)
Track 03 : OK (v2, confidence 3/3)
Track 04 : OK (v2, confidence 3/3)
Track 05 : OK (v2, confidence 3/3)
Track 06 : OK (v2, confidence 2/2)
Track 07 : OK (v2, confidence 3/3)
Track 08 : OK (v2, confidence 3/3)
->All tracks accurately ripped.

All Tracks
Album gain : -3.02 dB
Peak : 0.995728
Statistics
Read error : 0
Jitter error (maybe fixed) : 0
Retry sector count : 0
Damaged sector count : 0

Track 01
Filename : /Users/XLD_rips/Jim Hall - Live At The North Sea Jazz Festival (1999) [FLAC]/01-01 Skating in Central Park.flac
Pre-gap length : 00:02:00

Track gain : -3.21 dB
Peak : 0.993591
CRC32 hash (test run) : EFA1CE90
CRC32 hash : EFA1CE90
CRC32 hash (skip zero) : 8F4B8236
AccurateRip v1 signature : FAAC36DD
AccurateRip v2 signature : 702FD8C2
->Accurately ripped (v2, confidence 3/3)
Statistics
Read error : 0
Jitter error (maybe fixed) : 0
Retry sector count : 0
Damaged sector count : 0

Track 02
Filename : /Users/XLD_rips/Jim Hall - Live At The North Sea Jazz Festival (1999) [FLAC]/01-02 I Hear a Rhapsody.flac

Track gain : -4.44 dB
Peak : 0.959686
CRC32 hash (test run) : 64FF5B0B
CRC32 hash : 64FF5B0B
CRC32 hash (skip zero) : DC56BBB7
AccurateRip v1 signature : 46D35579
AccurateRip v2 signature : 7B6E5572
->Accurately ripped (v2, confidence 3/3)
Statistics
Read error : 0
Jitter error (maybe fixed) : 0
Retry sector count : 0
Damaged sector count : 0

Track 03
Filename : /Users/XLD_rips/Jim Hall - Live At The North Sea Jazz Festival (1999) [FLAC]/01-03 My Funny Valentine.flac

Track gain : -3.31 dB
Peak : 0.968994
CRC32 hash (test run) : A7FCE0BA
CRC32 hash : A7FCE0BA
CRC32 hash (skip zero) : A3702A3C
AccurateRip v1 signature : EE45B119
AccurateRip v2 signature : 473F9D54
->Accurately ripped (v2, confidence 3/3)
Statistics
Read error : 0
Jitter error (maybe fixed) : 0
Retry sector count : 0
Damaged sector count : 0

Track 04
Filename : /Users/XLD_rips/Jim Hall - Live At The North Sea Jazz Festival (1999) [FLAC]/01-04 Body and Soul.flac

Track gain : -1.69 dB
Peak : 0.970306
CRC32 hash (test run) : 14EF0DC2
CRC32 hash : 14EF0DC2
CRC32 hash (skip zero) : AE289930
AccurateRip v1 signature : 32CE5C5A
AccurateRip v2 signature : 41B57012
->Accurately ripped (v2, confidence 3/3)
Statistics
Read error : 0
Jitter error (maybe fixed) : 0
Retry sector count : 0
Damaged sector count : 0

Track 05
Filename : /Users/XLD_rips/Jim Hall - Live At The North Sea Jazz Festival (1999) [FLAC]/01-05 In a Sentimental Mood.flac

Track gain : -3.18 dB
Peak : 0.946167
CRC32 hash (test run) : E31FDAAC
CRC32 hash : E31FDAAC
CRC32 hash (skip zero) : A7AE7CB8
AccurateRip v1 signature : B7D2A4A9
AccurateRip v2 signature : 1D083B7A
->Accurately ripped (v2, confidence 3/3)
Statistics
Read error : 0
Jitter error (maybe fixed) : 0
Retry sector count : 0
Damaged sector count : 0

Track 06
Filename : /Users/XLD_rips/Jim Hall - Live At The North Sea Jazz Festival (1999) [FLAC]/01-06 Sweet Basil.flac

Track gain : -3.61 dB
Peak : 0.995728
CRC32 hash (test run) : 56BF6171
CRC32 hash : 56BF6171
CRC32 hash (skip zero) : 3AD92EEA
AccurateRip v1 signature : AC9326E9
AccurateRip v2 signature : 80978F5A
->Accurately ripped (v2, confidence 2/2)
Statistics
Read error : 0
Jitter error (maybe fixed) : 0
Retry sector count : 0
Damaged sector count : 0

Track 07
Filename : /Users/XLD_rips/Jim Hall - Live At The North Sea Jazz Festival (1999) [FLAC]/01-07 Darn That Dream.flac

Track gain : -2.35 dB
Peak : 0.929230
CRC32 hash (test run) : 954E4C4A
CRC32 hash : 954E4C4A
CRC32 hash (skip zero) : 4F8CC38B
AccurateRip v1 signature : E751CD89
AccurateRip v2 signature : 16D39B96
->Accurately ripped (v2, confidence 3/3)
Statistics
Read error : 0
Jitter error (maybe fixed) : 0
Retry sector count : 0
Damaged sector count : 0

Track 08
Filename : /Users/XLD_rips/Jim Hall - Live At The North Sea Jazz Festival (1999) [FLAC]/01-08 St. Thomas.flac

Track gain : -1.41 dB
Peak : 0.784180
CRC32 hash (test run) : FF177030
CRC32 hash : FF177030
CRC32 hash (skip zero) : 9EAF47EB
AccurateRip v1 signature : 5DFDBAB0
AccurateRip v2 signature : A08B66F4
->Accurately ripped (v2, confidence 3/3)
Statistics
Read error : 0
Jitter error (maybe fixed) : 0
Retry sector count : 0
Damaged sector count : 0

No errors occurred

End of status report

––-BEGIN XLD SIGNATURE––-
DEFmgWBrz0JTZ346O71u2nvGSJPOLrYAxyNQPQJmRn7_dAYKmwQVwX6_rBrLPJmgKxP00JeBtdzMOamPo4Wc2J6jiLX2izYpPAerfaK
––-END XLD SIGNATURE––-

[CUETools log; Date: 12.12.2017 18:16:58; Version: 2.1.5]
[CTDB TOCID: VGAuM8IQPrlr3ZcTiGzh6Q290Hs-] found.
Track | CTDB Status
1 | (7/7) Accurately ripped
2 | (7/7) Accurately ripped
3 | (7/7) Accurately ripped
4 | (7/7) Accurately ripped
5 | (7/7) Accurately ripped
6 | (7/7) Accurately ripped
7 | (7/7) Accurately ripped
8 | (7/7) Accurately ripped
[AccurateRip ID: 00168186-00954539-5d108908] found.
Track [ CRC | V2 ] Status
01 [faac36dd|702fd8c2] (0+4/4) Accurately ripped
02 [46d35579|7b6e5572] (0+4/4) Accurately ripped
03 [ee45b119|473f9d54] (0+4/4) Accurately ripped
04 [32ce5c5a|41b57012] (0+4/4) Accurately ripped
05 [b7d2a4a9|1d083b7a] (0+4/4) Accurately ripped
06 [ac9326e9|80978f5a] (0+3/3) Accurately ripped
07 [e751cd89|16d39b96] (0+4/4) Accurately ripped
08 [5dfdbab0|a08b66f4] (0+4/4) Accurately ripped
Offsetted by -628:
01 [d65cfdbc] (0/4) No match (V2 was not tested)
02 [c0b41124] (0/4) No match (V2 was not tested)
03 [c86d7aaa] (0/4) No match (V2 was not tested)
04 [59f2de1f] (0/4) No match (V2 was not tested)
05 [82502ce9] (0/4) No match (V2 was not tested)
06 [4e929683] (0/3) No match (V2 was not tested)
07 [8c40c17d] (0/4) No match (V2 was not tested)
08 [293a92b5] (0/4) No match (V2 was not tested)

Track Peak [ CRC32 ] [W/O NULL]
– 99,5 [884FDE8D] [8F77D847]
01 99,3 [EFA1CE90] [8F4B8236]
02 95,9 [64FF5B0B] [DC56BBB7]
03 96,9 [A7FCE0BA] [A3702A3C]
04 97,0 [14EF0DC2] [AE289930]
05 94,6 [E31FDAAC] [A7AE7CB8]
06 99,5 [56BF6171] [3AD92EEA]
07 92,9 [954E4C4A] [4F8CC38B]
08 78,4 [FF177030] [9EAF47EB]

foobar2000 1.2 / Dynamic Range Meter 1.1.1
log date: 2017-12-13 03:58:32

––––––––––––––––––––––––––––––––––––––––
Analyzed: Jim Hall & Bob Brookmeyer / Live at the North Sea Jazz Festival
––––––––––––––––––––––––––––––––––––––––

DR Peak RMS Duration Track
––––––––––––––––––––––––––––––––––––––––
DR13 -0.06 dB -17.06 dB 9:58 01-Skating in Central Park
DR12 -0.36 dB -15.62 dB 8:20 02-I Hear a Rhapsody
DR13 -0.27 dB -16.61 dB 8:24 03-My Funny Valentine
DR14 -0.26 dB -18.13 dB 10:36 04-Body and Soul
DR13 -0.48 dB -17.21 dB 9:45 05-In a Sentimental Mood
DR12 -0.04 dB -15.97 dB 7:36 06-Sweet Basil
DR13 -0.64 dB -17.43 dB 8:36 07-Darn That Dream
DR12 -2.11 dB -19.30 dB 7:18 08-St. Thomas
––––––––––––––––––––––––––––––––––––––––

Number of tracks: 8
Official DR value: DR13

Samplerate: 44100 Hz
Channels: 2
Bits per sample: 16
Bitrate: 566 kbps
Codec: FLAC
================================================================================

Jim Hall & Bob Brookmeyer - Live at the North Sea Jazz Festival, 1979 (1999)

Jim Hall & Bob Brookmeyer - Live at the North Sea Jazz Festival, 1979 (1999)