Tags
Language
Tags
June 2024
Su Mo Tu We Th Fr Sa
26 27 28 29 30 31 1
2 3 4 5 6 7 8
9 10 11 12 13 14 15
16 17 18 19 20 21 22
23 24 25 26 27 28 29
30 1 2 3 4 5 6

Jimi Hendrix: Collection Part 02 (1969-1975) [5LP, Vinyl Rip 16/44 & mp3-320 + DVD] Re-up

Posted By: v3122
Jimi Hendrix: Collection Part 02 (1969-1975) [5LP, Vinyl Rip 16/44 & mp3-320 + DVD] Re-up

Jimi Hendrix: Collection Part 02 (1969-1975)
Vinyl Rip 16/44 | Flac(Image + Cue) > 1021 Mb
MP3 CBR 320Kbps > 356 Mb | Artwork(jpg) > 7.09 Mb
DVD-9: NTSC 4:3 (720x480) VBR | LPCM, 2 ch, 24 bit, 96 kHz > 6.07 Gb
Label: Various | Blues Rock, Hard Rock, Psychedelic Rock, Acid Rock

~ 1972 - In The West, 1999. Live At Woodstock (3LP) & 1975. Midnight Lightning ~

American modern electric blues guitar virtuoso.
Born: 27 November 1942, Seattle, USA – Died: 18 September 1970, London, UK.

A self-taught guitarist, Hendrix began his musical career backing such R&B greats as Ike and Tina Turner, Sam Cooke, Wilson Pickett, Little Richard, The Isley Brothers, and B.B. King. Brought to London from New York by former Animals bassist Chas Chandler, Hendrix quickly established himself as the brightest new star on the burgeoning progressive rock scene of the early '60s. Along with bassist Noel Redding and drummer Mitch Mitchell he formed The Jimi Hendrix Experience.

After a landmark appearance at the Monterey Pop festival, their debut album Are You Experienced was released in September 1967. The album, and its 1968 successors - Axis: Bold As Love and the seminal blues-oriented developments of Electric Ladyland - earned Hendrix international acclaim as a premier rock instrumentalist and innovator of his generation. A 'greatest hits' collection, "Smash Hits" (1969), and an in-concert memento of his historic Monterey appearance, "Otis Redding / Jimi Hendrix Experience at Monterey" (1970), followed before his untimely death. A posthumous studio album, "The Cry Of Love", was released in January of 1971, followed by the double album soundtrack to the documentary film "Jimi Hendrix" in June of 1973.

~ discogs
Jimi Hendrix: Collection Part 02 (1969-1975):

Jimi Hendrix: Collection Part 02 (1969-1975) [5LP, Vinyl Rip 16/44 & mp3-320 + DVD] Re-up

Tracklist LP01 - Hendrix In The West (1972):

01. The Queen (3:00)
02. Sgt. Pepper's Lonely Hearts Club Band (0:59)
03. Little Wing (3:16)
04. Red House (13:12)
05. Johnny B. Goode (4:46)
06. Lover Man (3:08)
07. Blue Suede Shoes (4:29)
08. Voodoo Chile (7:50)

foobar2000 1.4 / Dynamic Range Meter 1.1.1
log date: 2019-01-09 12:33:24

––––––––––––––––––––––––––––––––––––––––
Analyzed: Jimi Hendrix / Jimi Hendrix - In The West
––––––––––––––––––––––––––––––––––––––––

DR Peak RMS Duration Track
––––––––––––––––––––––––––––––––––––––––
DR10 -2.37 dB -17.63 dB 3:00 01-The Queen
DR11 -1.28 dB -16.01 dB 0:59 02-Sgt. Pepper's Lonely Hearts Club Band
DR12 -0.22 dB -15.46 dB 3:16 03-Little Wing
DR13 -0.23 dB -18.33 dB 13:12 04-Red House
DR13 -0.20 dB -15.03 dB 4:46 05-Johnny B. Goode
DR12 -1.63 dB -16.37 dB 3:08 06-Lover Man
DR13 -2.49 dB -17.59 dB 4:29 07-Blue Suede Shoes
DR13 -0.62 dB -16.99 dB 7:50 08-Voodoo Chile
––––––––––––––––––––––––––––––––––––––––

Number of tracks: 8
Official DR value: DR12

Samplerate: 44100 Hz
Channels: 2
Bits per sample: 16
Bitrate: 780 kbps
Codec: FLAC
================================================================================




Original ripper: ?
Original format: 24 bit / 96 khz
Vinyl Condition: mint
Cleaning:
Direct Drive Turntable: Rega P9
Amplifier: Pro-Ject Tube Box SE II
ADC: EMU 1212
Postprocessing: Manual Click Repair

Downsampled to 16/44

Jimi Hendrix: Collection Part 02 (1969-1975) [5LP, Vinyl Rip 16/44 & mp3-320 + DVD] Re-up

Tracklist LP02-4 - Live At Woodstock (1969):

01. Introduction (2:25)
02. Message To Love (7:10)
03. Hear My Train A Comin' (9:48)
04. Spanish Castle Magic (7:06)
05. Red House (5:34)
06. Lover Man (5:02)
07. Foxey Lady (5:11)
08. Jam Back At The House (8:09)
09. Isabella (6:01)
10. Fire (3:45)
11. Voodoo Chile (Slight Return) (13:56)
12. Star Spangled Banner (3:11)
13. Purple Haze (3:25)
14. Woodstock Improvisation (5:00)
15. Villanova Junction (2:38)
16. Hey Joe (7:54)

foobar2000 1.4 / Dynamic Range Meter 1.1.1
log date: 2019-01-09 12:33:52

––––––––––––––––––––––––––––––––––––––––
Analyzed: Jimi Hendrix / Live At Woodstock
––––––––––––––––––––––––––––––––––––––––

DR Peak RMS Duration Track
––––––––––––––––––––––––––––––––––––––––
DR11 -6.15 dB -21.68 dB 2:25 01- Introduction
DR9 -1.71 dB -12.09 dB 7:10 02-Message Of Love
DR10 0.00 dB -12.93 dB 9:48 03-Hear My Train A Comin'
DR9 -2.11 dB -12.44 dB 7:06 04-Spanish Castle Magic
DR10 -1.81 dB -12.90 dB 5:34 05-Red House
DR9 -1.70 dB -12.36 dB 5:02 06-Lover Man
––––––––––––––––––––––––––––––––––––––––

Number of tracks: 6
Official DR value: DR10

Samplerate: 44100 Hz
Channels: 2
Bits per sample: 16
Bitrate: 839 kbps
Codec: FLAC
================================================================================

foobar2000 1.4 / Dynamic Range Meter 1.1.1
log date: 2019-01-09 12:34:20

––––––––––––––––––––––––––––––––––––––––
Analyzed: Jimi Hendrix / Live At Woodstock
––––––––––––––––––––––––––––––––––––––––

DR Peak RMS Duration Track
––––––––––––––––––––––––––––––––––––––––
DR9 -1.77 dB -13.06 dB 5:11 01-Foxy Lady
DR9 -0.11 dB -12.07 dB 8:09 02-Jam Back At The House
DR9 -1.40 dB -12.32 dB 6:01 03-Izabella
DR10 -1.23 dB -12.28 dB 3:45 04-Fire
DR10 -1.02 dB -12.09 dB 13:56 05-Voodoo Child (Slight Return)
––––––––––––––––––––––––––––––––––––––––

Number of tracks: 5
Official DR value: DR9

Samplerate: 44100 Hz
Channels: 2
Bits per sample: 16
Bitrate: 893 kbps
Codec: FLAC
================================================================================

foobar2000 1.4 / Dynamic Range Meter 1.1.1
log date: 2019-01-09 12:34:48

––––––––––––––––––––––––––––––––––––––––
Analyzed: Jimi Hendrix / Live At Woodstock
––––––––––––––––––––––––––––––––––––––––

DR Peak RMS Duration Track
––––––––––––––––––––––––––––––––––––––––
DR9 -1.37 dB -11.81 dB 3:11 01-Star Spangled Banner
DR9 -0.79 dB -10.99 dB 3:25 02-Purple Haze
DR10 -1.78 dB -13.51 dB 5:00 03-Woodstock Improvisation
DR10 -2.57 dB -15.12 dB 2:38 04- Villanova Juction
DR10 -0.58 dB -14.17 dB 7:54 05-Hey Joe
––––––––––––––––––––––––––––––––––––––––

Number of tracks: 5
Official DR value: DR10

Samplerate: 44100 Hz
Channels: 2
Bits per sample: 16
Bitrate: 861 kbps
Codec: FLAC
================================================================================




Original ripper: ?
Original format: 24 bit / 96 khz
Vinyl Condition: ?
Cleaning:
Direct Drive Turntable: CLEARAUDIO - AVANTGARDE MAGNUM; SUMIKO - BLUE POINT SPECIAL EVO-III Cartridge
Amplifier: EAR - 834P
ADC: M-Audio Audiophile 192
Postprocessing:

Downsampled to 16/44

Jimi Hendrix: Collection Part 02 (1969-1975) [5LP, Vinyl Rip 16/44 & mp3-320 + DVD] Re-up

Tracklist LP05 - Midnight Lightning (1975):

01. Trashman (also called "Midnight") (3:16)
02. Midnight Lightning (3:52)
03. Here My Train A Coming (5:18)
04. Gypsy Boy (New Rising Sun) (also called Hey Baby (The Land of the New Rising Sun) (3:51)
05. Blue Suede Shoes (Carl Perkins) (3:28)
06. Machine Gun (7:27)
07. Once I Had a Woman (5:44)
08. Beginnings (also called "Beginning" and "Jam Back at the House") (Mitch Mitchell) (3:02)

foobar2000 1.4 / Dynamic Range Meter 1.1.1
log date: 2019-01-09 12:35:16

––––––––––––––––––––––––––––––––––––––––
Analyzed: Jimi Hendrix / Midnight Lightning
––––––––––––––––––––––––––––––––––––––––

DR Peak RMS Duration Track
––––––––––––––––––––––––––––––––––––––––
DR11 -1.15 dB -14.02 dB 3:24 01-Trashman
DR12 -0.20 dB -15.43 dB 3:57 02-Midnight Lightning
DR10 -1.99 dB -14.23 dB 5:51 03-Hear My Train A Comin'
DR14 -2.92 dB -20.57 dB 3:49 04-Gypsy Boy
DR11 -2.71 dB -16.23 dB 3:35 05-Blue Suede Shoes
DR11 -1.68 dB -15.28 dB 7:34 06-Machine Gun
DR11 -2.30 dB -16.89 dB 5:26 07-Once I Had A Woman
DR10 -3.22 dB -16.54 dB 3:03 08-Beginnings
––––––––––––––––––––––––––––––––––––––––

Number of tracks: 8
Official DR value: DR11

Samplerate: 44100 Hz
Channels: 2
Bits per sample: 16
Bitrate: 766 kbps
Codec: FLAC
================================================================================




Original ripper: ?
Original format: 24 bit / 96 khz
Vinyl Condition: ?
Cleaning:
Direct Drive Turntable: Technics SL-1600 MKI
Cartridge: Shure M97xE
Amplifier: Hafler 915 preamp
ADC: SB Audigy 2
Postprocessing:

Downsampled to 16/44

Title: AudioDVD
Size: 5.75 Gb ( 6 032 120,00 KBytes ) - DVD-9
Enabled regions: 1, 2, 3, 4, 5, 6, 7, 8

VTS_01 :
Play Length: 00:40:36+01:36:09+00:36:36
Video: NTSC 4:3 (720x480) VBR
Audio:
Not specified (LinearPCM, 2 ch)


Jimi Hendrix: Collection Part 02 (1969-1975) [5LP, Vinyl Rip 16/44 & mp3-320 + DVD] Re-up

Jimi Hendrix: Collection Part 02 (1969-1975) [5LP, Vinyl Rip 16/44 & mp3-320 + DVD] Re-up

Jimi Hendrix: Collection Part 02 (1969-1975) [5LP, Vinyl Rip 16/44 & mp3-320 + DVD] Re-up

Jimi Hendrix in my Blog

Download Jimi Hendrix: Collection Part 02 (1969-1975):