Tags
Language
Tags

Jimmy Rushing - Everyday I Have The Blues (1999)

Posted By: Designol
Jimmy Rushing - Everyday I Have The Blues (1999)

Jimmy Rushing - Everyday I Have The Blues (1999)
EAC | FLAC | Image (Cue&Log) ~ 464 Mb | Mp3 (CBR320) ~ 195 Mb | Scans included
Vocal Jazz, Jazz-Blues | Label: Impulse! | # 547 967-2 | Time: 01:08:52

It may have been relatively late in Jimmy Rushing's career when he recorded two albums for ABC/BluesWay (Every Day I Have the Blues and Livin' the Blues, both of which are reissued in full on this single CD), but he was still in prime singing voice. Joined by such friends as trombonist Dickie Wells, trumpeter Clark Terry, and tenor saxophonist Buddy Tate, Rushing shows that he was still relevant on such blues-based songs as "Berkeley Campus Blues," "Blues in the Dark," "I Left My Baby," "Sent for You Yesterday," and "We Remember Prez." Even with Oliver Nelson's arrangements on the first half and an electric rhythm section on the second, both Rushing and the musicians play off each other well, resulting in a swinging set.

Review by Scott Yanow, Allmusic.com

It's 1967, the winter before the summer of love. And swing-era-born blues shouter Jimmy Rushing's "Berkeley Campus Blues" sported this observation: "We've got sit-ins, drop-outs, and freedom fighters, too/ We've got sit-ins, drop-outs, and freedom fighters, too/ We've got kooks and politicians–everything but kids in school." Rushing laid Everyday I Have the Blues and Livin' the Blues to wax over two days in February of '67, and both cuts appear in their entirety on this spectacular CD. As always, Rushing is a topnotch, peerless shouter, belting it out with a charging band led by arranger Oliver Nelson and fronted by trumpeter Clark Terry and trombonist Dicky Wells. On organ and piano there's Hank Jones, filling the alleys and spaces between Rushing's full-bodied vocal attack. The whole affair is surprising, especially considering that upon their release, these LPs were presented by Impulse!, then known as home to the late-Coltrane-inspired energy jazz of Pharoah Sanders and others. Rushing's seemingly apolitical blues are an anomaly considering the intense political nature of jazz at the time (and the idea that lots of the swing-era cats were somehow no longer cool), but it's vital to remember how powerfully Rushing transcends genres and eras. This is jumping, stirring blues and snappy swing at once. And if anything, Rushing was just a touch old school, expressing in "Berkeley Campus Blues" the idea that the right to education–for African Americans especially–was hard fought and worthy itself of some curricular attendance. Whether there's consensus on the point or not, Rushing's blues is some of the best, and he shines brightly here.

Review by Andrew Bartlett, Editorial Review Amazon.com

Jimmy Rushing - Everyday I Have The Blues (1999)



Recorded at Capitol Studios, New York City, on February 9, 1967 (#1 - #8), February 10, 1967 (#9) and in 1968 (#10 - 16).
Tracks 1 to 9 originally issued on "Every Day I Have The Blues", ABC Bluesway BLS 6005
Tracks 10 to 16 originally issued on "Livin' The Blues", ABC Bluesway BLS 6017
Remastered by Erik Labson at MCA Music Media Studios, using 20-Bit Super Mapping.

Tracklist:

01. Berkely Campus Blues (3:06)
02. Keep The Faith, Baby (2:48)
03. You Can't Run Around (Blues) (4:04)
04. Blues In The Dark (3:45)
05. Baby, Don't Tell On Me (2:44)
06. Everyday I Have The Blues (2:52)
07. I Left My Baby (4:28)
08. Undecided Blues (5:18)
09. Evil Blues (2:58)
10. Sent For You Yesterday (Here You Come Today) (4:14)
11. Bad Loser (4:21)
12. Sonny Boy Blues (4:47)
13. We Remember Prez (4:57)
14. Cryin' Blues (4:41)
15. Take Me Back, Baby (6:13)
16. Tell Me I'm Not Too Late (7:37)


Exact Audio Copy V0.99 prebeta 5 from 4. May 2009

Отчёт EAC об извлечении, выполненном 2. сентября 2009, 22:11

Jimmy Rushing / Everyday I Have The Blues

Дисковод: PIONEER DVD-RW DVR-217F Adapter: 0 ID: 1

Режим чтения : Достоверность
Использование точного потока : Да
Отключение кэша аудио : Да
Использование указателей C2 : Нет

Коррекция смещения при чтении : 96
Способность читать области Lead-in и Lead-out : Нет
Заполнение пропущенных сэмплов тишиной : Да
Удаление блоков с тишиной в начале и конце : Нет
При вычислениях CRC использовались нулевые сэмплы : Да
Интерфейс : Установленный внешний ASPI-интерфейс

Выходной формат : Пользовательский кодировщик
Выбранный битрейт : 128 kBit/s
Качество : Высокий
Добавление ID3-тэга : Нет
Утилита сжатия : C:\Program Files\FLAC\FLAC frontend.exe
Дополнительные параметры : -8 -V %s


TOC извлечённого CD

Трек | Старт | Длительность | Начальный сектор | Конечный сектор
––––––––––––––––––––––––––––––––––-
1 | 0:00.00 | 3:06.17 | 0 | 13966
2 | 3:06.17 | 2:48.08 | 13967 | 26574
3 | 5:54.25 | 4:03.70 | 26575 | 44869
4 | 9:58.20 | 3:44.70 | 44870 | 61739
5 | 13:43.15 | 2:43.72 | 61740 | 74036
6 | 16:27.12 | 2:52.00 | 74037 | 86936
7 | 19:19.12 | 4:28.15 | 86937 | 107051
8 | 23:47.27 | 5:17.53 | 107052 | 130879
9 | 29:05.05 | 2:58.22 | 130880 | 144251
10 | 32:03.27 | 4:13.50 | 144252 | 163276
11 | 36:17.02 | 4:20.40 | 163277 | 182816
12 | 40:37.42 | 4:46.63 | 182817 | 204329
13 | 45:24.30 | 4:56.50 | 204330 | 226579
14 | 50:21.05 | 4:40.50 | 226580 | 247629
15 | 55:01.55 | 6:13.15 | 247630 | 275619
16 | 61:14.70 | 7:37.17 | 275620 | 309911


Характеристики диапазона извлечения и сообщения об ошибках

Выбранный диапазон

Имя файла C:\Torrent\Новая папка\Jimmy Rushing - Everyday I Have The Blues.wav

Пиковый уровень 99.8 %
Качество диапазона 100.0 %
CRC теста A5554BD6
CRC копии A5554BD6
Копирование… OK

Ошибок не произошло


AccurateRip: сводка

Трек 1 точность не определена (достоверность 2) [B55A663D], AccurateRip вернул [0D941FAD]
Трек 2 точность не определена (достоверность 2) [F521CD74], AccurateRip вернул [428D2554]
Трек 3 точность не определена (достоверность 2) [A998D2D1], AccurateRip вернул [6B706437]
Трек 4 точность не определена (достоверность 2) [1E73B6A0], AccurateRip вернул [8489040B]
Трек 5 точность не определена (достоверность 2) [194B27EB], AccurateRip вернул [D7C3CCE0]
Трек 6 точность не определена (достоверность 2) [A8E82CA3], AccurateRip вернул [0855B4EB]
Трек 7 точность не определена (достоверность 2) [A0AAC0E6], AccurateRip вернул [78684947]
Трек 8 точность не определена (достоверность 2) [E145CA87], AccurateRip вернул [C3700017]
Трек 9 точность не определена (достоверность 2) [F9E2E377], AccurateRip вернул [355E73B7]
Трек 10 точность не определена (достоверность 2) [1CB7A584], AccurateRip вернул [7448F860]
Трек 11 точность не определена (достоверность 2) [B4D692B8], AccurateRip вернул [114437D6]
Трек 12 точность не определена (достоверность 2) [1A9815F7], AccurateRip вернул [5E7320BF]
Трек 13 точность не определена (достоверность 2) [1FE1C88C], AccurateRip вернул [374BAD42]
Трек 14 точность не определена (достоверность 2) [EC4F2349], AccurateRip вернул [0B15D0CC]
Трек 15 точность не определена (достоверность 2) [22041510], AccurateRip вернул [DA916014]
Трек 16 точность не определена (достоверность 2) [4A6816B5], AccurateRip вернул [F3D93D66]

Ни один трек не прошёл проверки на точность
В вашей базе может быть иной вариант штамповки диска

Конец отчёта

[CUETools log; Date: 21.05.2018 18:27:15; Version: 2.1.4]
[CTDB TOCID: rHZ_11SIkvnw.p9g6Jf44yG_nNs-] found.
Track | CTDB Status
1 | ( 8/11) Accurately ripped
2 | ( 8/11) Accurately ripped
3 | ( 8/11) Accurately ripped
4 | ( 8/11) Accurately ripped
5 | ( 8/11) Accurately ripped
6 | ( 8/11) Accurately ripped
7 | ( 8/11) Accurately ripped
8 | ( 8/11) Accurately ripped
9 | ( 8/11) Accurately ripped
10 | ( 8/11) Accurately ripped
11 | ( 8/11) Accurately ripped
12 | ( 8/11) Accurately ripped
13 | ( 8/11) Accurately ripped
14 | ( 8/11) Accurately ripped
15 | ( 8/11) Accurately ripped
16 | ( 8/11) Accurately ripped
[AccurateRip ID: 00231a3c-01b061e4-ea102410] found.
Track [ CRC | V2 ] Status
01 [b55a663d|bac54257] (06+06/21) Accurately ripped
02 [f521cd74|58d4229e] (06+06/21) Accurately ripped
03 [a998d2d1|624f8aab] (06+06/21) Accurately ripped
04 [1e73b6a0|9f02f861] (06+06/21) Accurately ripped
05 [194b27eb|f8d10162] (06+06/21) Accurately ripped
06 [a8e82ca3|af7299da] (06+06/21) Accurately ripped
07 [a0aac0e6|eb6a42da] (06+06/21) Accurately ripped
08 [e145ca87|f427aec2] (06+06/21) Accurately ripped
09 [f9e2e377|b5c6e058] (06+06/21) Accurately ripped
10 [1cb7a584|85ff4aae] (06+06/21) Accurately ripped
11 [b4d692b8|6ad919f2] (06+06/21) Accurately ripped
12 [1a9815f7|89b7cacd] (06+06/20) Accurately ripped
13 [1fe1c88c|e8336188] (06+06/21) Accurately ripped
14 [ec4f2349|6ab11d6b] (06+06/21) Accurately ripped
15 [22041510|baf86c9a] (06+06/21) Accurately ripped
16 [4a6816b5|f02f7904] (05+06/20) Accurately ripped

Track Peak [ CRC32 ] [W/O NULL] [ LOG ]
– 99,8 [A5554BD6] [07863436] CRC32
01 98,8 [930A75A0] [0633BF0B]
02 99,6 [19926547] [48000EB4]
03 94,8 [D2210FE4] [03E1DCFA]
04 99,8 [B4F79EE4] [6454F7A2]
05 98,5 [54AC77FC] [B38BF231]
06 98,3 [D631F0D3] [1DBE9D57]
07 98,3 [B2D52A57] [0EB9DBC6]
08 98,4 [490772DE] [945093CA]
09 98,9 [7012DBCA] [61991992]
10 99,8 [3009D01C] [5E659868]
11 98,4 [B6AA1E06] [DF882DFB]
12 98,1 [EFE81E77] [BC2F0944]
13 95,5 [2CF6FF7B] [7F60EB51]
14 92,7 [8BB7512F] [3E571B12]
15 93,7 [698A86EC] [03DE2194]
16 93,1 [F32DF9F3] [EEC50A3B]

foobar2000 1.2 / Dynamic Range Meter 1.1.1
log date: 2018-05-21 18:29:35

––––––––––––––––––––––––––––––––––––––––
Analyzed: Jimmy Rushing / Everyday I Have The Blues
––––––––––––––––––––––––––––––––––––––––

DR Peak RMS Duration Track
––––––––––––––––––––––––––––––––––––––––
DR9 -0.10 dB -11.60 dB 3:06 01-Berkely Campus Blues
DR12 -0.03 dB -14.34 dB 2:48 02-Keep The Faith, Baby
DR10 -0.46 dB -11.90 dB 4:04 03-You Can't Run Around (Blues)
DR11 -0.01 dB -13.60 dB 3:45 04-Blues In The Dark
DR10 -0.13 dB -12.10 dB 2:44 05-Baby, Don't Tell On Me
DR10 -0.15 dB -12.01 dB 2:52 06-Everyday I Have The Blues
DR10 -0.15 dB -12.75 dB 4:28 07-I Left My Baby
DR10 -0.13 dB -13.26 dB 5:18 08-Undecided Blues
DR9 -0.09 dB -11.26 dB 2:58 09-Evil Blues
DR9 -0.01 dB -10.79 dB 4:14 10-Sent For You Yesterday (Here You Come Today)
DR9 -0.14 dB -10.35 dB 4:21 11-Bad Loser
DR9 -0.16 dB -10.59 dB 4:47 12-Sonny Boy Blues
DR8 -0.40 dB -9.97 dB 4:57 13-We Remember Prez
DR8 -0.65 dB -10.05 dB 4:41 14-Cryin' Blues
DR7 -0.56 dB -9.97 dB 6:13 15-Take Me Back, Baby
DR7 -0.62 dB -9.25 dB 7:37 16-Tell Me I'm Not Too Late
––––––––––––––––––––––––––––––––––––––––

Number of tracks: 16
Official DR value: DR9

Samplerate: 44100 Hz
Channels: 2
Bits per sample: 16
Bitrate: 866 kbps
Codec: FLAC
================================================================================

Jimmy Rushing - Everyday I Have The Blues (1999)

Jimmy Rushing - Everyday I Have The Blues (1999)

All thanks to original releaser - alexkhaa

More interesting music in My Blog