Tags
Language
Tags

Jimmy Cliff - The Power And The Glory (1983) {CBS} **[RE-UP]**

Posted By: TestTickles
Jimmy Cliff - The Power And The Glory (1983) {CBS} **[RE-UP]**

Jimmy Cliff - The Power And The Glory (1983) {CBS}
EAC Rip | FLAC with CUE and LOG | scans | 305 mb
MP3 CBR 320 kbps | RAR | 156 mb
Genre: reggae, reggae pop

The Power And The Glory is the 1983 album by Jamaican legend Jimmy Cliff. This features the hit songs "Sunshine In The Music", "Reggae Night" and the powerful "We All Are One". This is the European pressing released by CBS.

Jimmy Cliff - The Power And The Glory (1983) {CBS} **[RE-UP]**

1. We All Are One
2. Sunshine In The Music
3. Reggae Night
4. Piece Of The Pie
5. American Dream
6. Roots Woman
7. Love Solution
8. Power And The Glory
9. Journey

Exact Audio Copy V1.3 from 2. September 2016

EAC extraction logfile from 15. January 2018, 06:26

Jimmy Cliff / The Power And The Glory

Used drive : SlimtypeeNAU508 5 Adapter: 1 ID: 1

Read mode : Secure
Utilize accurate stream : Yes
Defeat audio cache : No
Make use of C2 pointers : No

Read offset correction : 6
Overread into Lead-In and Lead-Out : No
Fill up missing offset samples with silence : Yes
Delete leading and trailing silent blocks : No
Null samples used in CRC calculations : Yes
Used interface : Native Win32 interface for Win NT & 2000
Gap handling : Not detected, thus appended to previous track

Used output format : User Defined Encoder
Selected bitrate : 768 kBit/s
Quality : High
Add ID3 tag : Yes
Command line compressor : C:\Program Files (x86)\Exact Audio Copy\FLAC\FLAC.EXE
Additional command line options : -6 -V -T "ARTIST=%artist%" -T "TITLE=%title%" -T "ALBUM=%albumtitle%" -T "DATE=%year%" -T "TRACKNUMBER=%tracknr%" -T "GENRE=%genre%" -T "COMMENT=%comment%" -T "BAND=%albuminterpret%" -T "ALBUMARTIST=%albuminterpret%" -T "COMPOSER=%composer%" %haslyrics%–tag-from-file=LYRICS="%lyricsfile%"%haslyrics% -T "DISCNUMBER=%cdnumber%" -T "TOTALDISCS=%totalcds%" -T "TOTALTRACKS=%numtracks%" %hascover%–picture="%coverfile%"%hascover% %source% -o %dest%


TOC of the extracted CD

Track | Start | Length | Start sector | End sector
––––––––––––––––––––––––––––-
1 | 0:00.00 | 4:33.64 | 0 | 20538
2 | 4:33.64 | 4:53.71 | 20539 | 42584
3 | 9:27.60 | 5:22.64 | 42585 | 66798
4 | 14:50.49 | 4:52.62 | 66799 | 88760
5 | 19:43.36 | 4:26.33 | 88761 | 108743
6 | 24:09.69 | 4:21.11 | 108744 | 128329
7 | 28:31.05 | 4:02.23 | 128330 | 146502
8 | 32:33.28 | 5:17.09 | 146503 | 170286
9 | 37:50.37 | 3:42.05 | 170287 | 186941


Track 1

Filename C:\cuntfist\FLAC\Jimmy Cliff - The Power And The Glory (1983) [FLAC] {CBS}\01 - We All Are One.wav

Peak level 97.4 %
Extraction speed 4.5 X
Track quality 99.9 %
Copy CRC 16F60B69
Track not present in AccurateRip database
Copy OK

Track 2

Filename C:\cuntfist\FLAC\Jimmy Cliff - The Power And The Glory (1983) [FLAC] {CBS}\02 - Sunshine In The Music.wav

Peak level 80.3 %
Extraction speed 5.3 X
Track quality 100.0 %
Copy CRC EB926457
Track not present in AccurateRip database
Copy OK

Track 3

Filename C:\cuntfist\FLAC\Jimmy Cliff - The Power And The Glory (1983) [FLAC] {CBS}\03 - Reggae Night.wav

Peak level 94.4 %
Extraction speed 6.1 X
Track quality 100.0 %
Copy CRC A911C18C
Track not present in AccurateRip database
Copy OK

Track 4

Filename C:\cuntfist\FLAC\Jimmy Cliff - The Power And The Glory (1983) [FLAC] {CBS}\04 - Piece Of The Pie.wav

Peak level 76.2 %
Extraction speed 5.9 X
Track quality 99.9 %
Copy CRC EC3981C2
Track not present in AccurateRip database
Copy OK

Track 5

Filename C:\cuntfist\FLAC\Jimmy Cliff - The Power And The Glory (1983) [FLAC] {CBS}\05 - American Dream.wav

Peak level 73.9 %
Extraction speed 6.5 X
Track quality 100.0 %
Copy CRC 65160DCA
Track not present in AccurateRip database
Copy OK

Track 6

Filename C:\cuntfist\FLAC\Jimmy Cliff - The Power And The Glory (1983) [FLAC] {CBS}\06 - Roots Woman.wav

Peak level 71.6 %
Extraction speed 7.2 X
Track quality 100.0 %
Copy CRC 8457EF7F
Track not present in AccurateRip database
Copy OK

Track 7

Filename C:\cuntfist\FLAC\Jimmy Cliff - The Power And The Glory (1983) [FLAC] {CBS}\07 - Love Solution.wav

Peak level 71.8 %
Extraction speed 7.4 X
Track quality 100.0 %
Copy CRC 383A29FE
Track not present in AccurateRip database
Copy OK

Track 8

Filename C:\cuntfist\FLAC\Jimmy Cliff - The Power And The Glory (1983) [FLAC] {CBS}\08 - Power And The Glory.wav

Peak level 72.7 %
Extraction speed 7.9 X
Track quality 100.0 %
Copy CRC 84C08191
Track not present in AccurateRip database
Copy OK

Track 9

Filename C:\cuntfist\FLAC\Jimmy Cliff - The Power And The Glory (1983) [FLAC] {CBS}\09 - Journey.wav

Peak level 63.7 %
Extraction speed 8.0 X
Track quality 100.0 %
Copy CRC A33979FF
Track not present in AccurateRip database
Copy OK


None of the tracks are present in the AccurateRip database

No errors occurred

End of status report

–– CUETools DB Plugin V2.1.6

[CTDB TOCID: 2lW1TV9p5XM_gEGbY8WxZyDancc-] disk not present in database
Submit result: 2lW1TV9p5XM_gEGbY8WxZyDancc- has been uploaded


==== Log checksum 91D498FC9E1174BB832872945B261FA2802520CB6AE51A3277867A6220269364 ====


Jimmy Cliff - The Power And The Glory (1983) {CBS} **[RE-UP]**


Thank you to the original uploader.