Subcategories

Joachim Carlos Martini, Barockorchester Frankfurt, Junge Kantorei - Handel: Il Trionfo del Tempo e della Verita (2000)

Posted By: ArlegZ
Joachim Carlos Martini, Barockorchester Frankfurt, Junge Kantorei - Handel: Il Trionfo del Tempo e della Verita (2000)

Joachim Carlos Martini, Barockorchester Frankfurt, Junge Kantorei - Handel: Il Trionfo del Tempo e della Verità (2000)
EAC | FLAC | Image (Cue & Log) ~ 796 Mb | Total time: 179:40 | Scans included
Classical | Label: Naxos | # 8.554440-42 | Recorded: 1998

This almost unknown, large scale (almost 3 hour) oratorio, The Triumph of Time and Truth, was composed by Handel in Rome in 1707 and revised by him for performances in London’s Covent Garden in 1737 (the version recorded here) and then translated into English, revised again and presented, with new additions, in 1757. The performance recorded here contains, probably, everything Handel composed for this work in its various incarnations, and then some: A brief organ concerto by the composer is added to the second part’s introduction and another pops up before the final chorus; a number from the serenata Acis & Galatea is inserted at one point; and a Saraband for two harpsichords from Handel’s Almira is used as an interlude in Part III. Furthermore, some will recognize the beautiful aria from the original, “Lascia la spina,” which became “Lascia ch’io piango” in Rinaldo, set to another text and very different music.
All that aside, this windy work, in which four characters (here, two sopranos and two male altos) stand for Beauty, Pleasure, Time and Disillusion and duke it out until each characteristic opts to serve a better, higher cause, is definitely worth hearing. It contains the appealing, straighforwardly Baroque (if there is such a thing) style of Handel’s early Italian cantatas, mixed with his later sophisticated choral writing and dramatic recitatives. The singers have plenty to do. Both sopranos–Beauty and Pleasure, who sound uncomfortably alike and therefore cut somewhat into the drama–are excellent, with particular kudos going to Claron McFaddon’s Beauty for her lovely trills (especially in #29, with continuo), and both male altos are agile, involved, and just a bit weak in their lower registers.
The chorus, which is very big and appears to have been recorded from a far greater distance than the soloists, is splendid, as is the orchestra under Joachim Carlos Martini’s leadership. The resonant acoustic makes the soloists sound a bit lonely, but otherwise, no complaints. This remains the only recording of the 1737 omnibus version of the work, and Handel lovers should flock to it.
– Robert Levine

Performer:
La Bellezza - Claron McFadden, soprano
Il Piacere - Elisabeth Scholl, soprano
Il Tempo - Nicholas Hariades, alto
Il Disinganno - Peer Abilgaard, alto
Junge Kantorei
Barockorchester Frankfurt
Conductor - Joachim Carlos Martini

Track List:
CD1:
Parte prima
01. Sonata dell’Overtura, HWV 46a; Sinfonia, HWV 46b
02. Coro e Soli “Solo al godere aspria il nostro cor” (Alto e Tromba, Coro)
03. Recitativo “Qual veggo il mio sembiante” (Bellezza)
04. Aria “Fido specchio, in te vagheggio” (Bellezza)
05. Recitativo “Io che sono il Piacere” (Piacere, Bellezza)
06. Aria “Fosco genio, e nero duolo” (Piacere)
07. Recitativo “Ed io, che ’l Tempo sono” (Tempo, Disinganno)
08. Aria “Se la bellezza” (Disinganno)
09. Recitativo “Dunque si prendan l’armi” (Piacere, Bellezza, Tempo, Disinganno)
10. Aria “Una schiera di piaceri” (Bellezza)
11. Recitativo “I Colossi del Sole” (Tempo)
12. Aria “Urne voi, che racchiudete” (Tempo)
13. Coro “Son large de dolor” (Coro del Tempo)
14. Recitativo “Sono troppo crudi i tuoi consigli” (Piacere)
15. Duetto “Il voler nel fior degli’anni” (Bellezza, Piacere)
16. Recitativo “Della vita morale” (Disinganno, Bellezza)
17. Aria “Un pensiero nemico di pace” (Bellezza)
18. Recitativo “Folle, tu nieghi ’l tempo, ed in quest’ora” (Disinganno, Piacere, Bellezza)
19. Aria “Nasce l’Uomo, ma nasce Bambino” (Tempo)
20. Coro “L’Uomo sempre se stesso distrugge (Coro)
CD2:
01. Concerto per Organo, Violino e Violoncelle soloe Stromenti
02. Soli e Coro “Viver, nor amar” (Bellezza, Piacere, Tempo, Disinganno, Coro)
03. Sinfonia
Seconda Parte
04. Recitativo “Questa e la Reggio mia” (Piacere)
05. Sonatina per Violino solo
06. Sonatina per Carillons
07. Recitativo “Taci: qual suono ascolto?” (Bellezza)
08. Aria “Un leggiadro Giovinetto” (Piacere)
09. Recitativo “Ha nella destra l’ali” (Bellezza)
10. Aria “Venga il Tempo, e con l’ali funeste” (Bellezza)
11. Coro “O Tempo, padre del dolor” (Coro)
12. Ritornello
13. Aria “Crede l’uon ch’egli riposi” (Disinganno)
14. Recitativo “Tu credi che sia lunge” (Tempo, Bellezza)
15. Aria “Folle, dunque tu sola presumi” (Tempo)
16. Recitativo “La Reggia del piacer vedesti?” (Disinganno, Tempo)
17. Quartetto “Se non sei più ministro di pene” (Bellezza, Piacere, Disinganno, Tempo)
18. Recitativo “Se del falso piacere” (Tempo)
19. Aria “Chiudi, chiudi i vaghi rai” (Piacere)
20. Recitativo “In tre parti divise” (Tempo)
21. Aria “Io sperai troval nel vero” (Bellezza)
22. Recitativo “Tu vivi invan dolente” (Piacere)
23. Aria “Tu giurasti di mai no lasciarmi” (Piacere)
24. Recitativo “Sguardo, che infermo ai rai del Sol si volge” (Tempo)
25. Aria “Io vorrei due cori in Seno” (Bellezza)
26. Recitativo “Io giurerei, che tu chiudesti il lumi” (Disinganno, Bellezza)
27. Aria “Più non cura” (Disinganno)
28. Recitativo “E un’ostinato errore” (Tempo)
29. Aria “È ben folle quel Nocchier” (Tempo)
30. Recitativo “Dicesti il vero, e (benche tardi) intesi” (Bellezza)
31. Quartetto “Voglio Tempo per risolvere” (Bellezza, Tempo, Disinganno, Piacere)
32. Coro “Pria che sii converta in Polve” (Coro)
CD3:
Terza Parte
01. Sinfonia
02. Recitativo “Presso la Reggia ove ’l Piacere risiede” (Bellezza, Disinganno)
03. Aria “Lascia la Spina” (Piacere)
04. Sarabande; Improvvisazione per due Cembali (Almira, Hamburg 1704, HWV 1, 4)
05. Aria “Lascia la Spina, etc” (II Trionfo del Tempo e del Disinganno, Rome 1707, HWV 46a, 23) (Piacere)
06. Recitativo “Con troppo chiare note” (Bellezza, Disinganno)
07. Aria “Voglio cangiar desio” (Bellezza)
08. Recitativo “Or che tiene la destra” (Bellezza, Piacere, Disinganno)
09. Aria “Chi già fu del giondo Crine” (Disinganno)
10. Recitativo “Ma che veggio? Che miro?” (Bellezza)
11. Aria “Ricco pino” (Bellezza)
12. Accompagnato “Si, bella penitenza” (Bellezza)
13. Aria “Il bel pianto dell’Aurora” (Tempo)
14. Recitativo “Piacer, che meco gia vivesti, il vero” (Bellezza)
15. Aria “Come Nembo che fugge col vento” (Piacere)
16. Accompagnato “Or se la Verità del Sole Eterno” (Bellezza)
17. Aria “Quel del Ciel Ministro Eletto” (Bellezza)
18. Concerto per Organo (op. 4, 4, F-Dur, HWV 292)
19. Coro “Alleluia” (Coro)


Exact Audio Copy V1.3 from 2. September 2016

EAC extraction logfile from 8. January 2019, 18:47

Claron McFadden, Elisabeth Scholl, Nicholas Hariades, Peer Abilgaard; Joachim Carlos Martini / Handel - Il Trionfo del Tempo e della Verità (Disc 1)

Used drive : ATAPI iHAS124 F Adapter: 1 ID: 0

Read mode : Secure
Utilize accurate stream : Yes
Defeat audio cache : Yes
Make use of C2 pointers : No

Read offset correction : 6
Overread into Lead-In and Lead-Out : No
Fill up missing offset samples with silence : Yes
Delete leading and trailing silent blocks : No
Null samples used in CRC calculations : Yes
Used interface : Native Win32 interface for Win NT & 2000

Used output format : User Defined Encoder
Selected bitrate : 1024 kBit/s
Quality : High
Add ID3 tag : No
Command line compressor : C:\Program Files (x86)\Exact Audio Copy\FLAC\FLAC.EXE
Additional command line options : -6 -V -T "ARTIST=%artist%" -T "TITLE=%title%" -T "ALBUM=%albumtitle%" -T "DATE=%year%" -T "TRACKNUMBER=%tracknr%" -T "GENRE=%genre%" -T "COMMENT=%comment%" -T "BAND=%albuminterpret%" -T "ALBUMARTIST=%albuminterpret%" -T "COMPOSER=%composer%" %haslyrics%–tag-from-file=LYRICS="%lyricsfile%"%haslyrics% -T "DISCNUMBER=%cdnumber%" -T "TOTALDISCS=%totalcds%" -T "TOTALTRACKS=%numtracks%" %hascover%–picture="%coverfile%"%hascover% %source% -o %dest%


TOC of the extracted CD

Track | Start | Length | Start sector | End sector
––––––––––––––––––––––––––––-
1 | 0:00.00 | 7:11.02 | 0 | 32326
2 | 7:11.02 | 3:01.05 | 32327 | 45906
3 | 10:12.07 | 0:21.73 | 45907 | 47554
4 | 10:34.05 | 5:06.02 | 47555 | 70506
5 | 15:40.07 | 0:33.63 | 70507 | 73044
6 | 16:13.70 | 4:57.32 | 73045 | 95351
7 | 21:11.27 | 0:27.65 | 95352 | 97441
8 | 21:39.17 | 3:54.05 | 97442 | 114996
9 | 25:33.22 | 0:23.68 | 114997 | 116789
10 | 25:57.15 | 5:38.70 | 116790 | 142209
11 | 31:36.10 | 0:18.05 | 142210 | 143564
12 | 31:54.15 | 3:06.50 | 143565 | 157564
13 | 35:00.65 | 1:42.35 | 157565 | 165249
14 | 36:43.25 | 0:18.30 | 165250 | 166629
15 | 37:01.55 | 6:00.20 | 166630 | 193649
16 | 43:02.00 | 0:39.10 | 193650 | 196584
17 | 43:41.10 | 2:29.70 | 196585 | 207829
18 | 46:11.05 | 1:07.10 | 207830 | 212864
19 | 47:18.15 | 1:52.12 | 212865 | 221276
20 | 49:10.27 | 1:37.48 | 221277 | 228599


Range status and errors

Selected range

Filename C:\EACRip\HANDEL\Handel - Il Trionfo del Tempo e della Verità (Joachim Carlos Martini) (2000)\CD1\Handel - Il Trionfo del Tempo e della Verita (Disc 1) - Joachim Carlos Martini.wav

Peak level 95.4 %
Extraction speed 8.4 X
Range quality 100.0 %
Test CRC D0E75E20
Copy CRC D0E75E20
Copy OK

No errors occurred


AccurateRip summary

Track 1 accurately ripped (confidence 6) [10FDDFE0] (AR v2)
Track 2 accurately ripped (confidence 6) [51B0725B] (AR v2)
Track 3 accurately ripped (confidence 6) [DE2A9021] (AR v2)
Track 4 accurately ripped (confidence 6) [AD7CB185] (AR v2)
Track 5 accurately ripped (confidence 6) [C5748491] (AR v2)
Track 6 accurately ripped (confidence 6) [414F4664] (AR v2)
Track 7 accurately ripped (confidence 6) [467F04DF] (AR v2)
Track 8 accurately ripped (confidence 6) [FCBACE2F] (AR v2)
Track 9 accurately ripped (confidence 6) [DAD91270] (AR v2)
Track 10 accurately ripped (confidence 6) [E57FD6D4] (AR v2)
Track 11 accurately ripped (confidence 6) [E9A367FF] (AR v2)
Track 12 accurately ripped (confidence 6) [15C95330] (AR v2)
Track 13 accurately ripped (confidence 6) [A9053703] (AR v2)
Track 14 accurately ripped (confidence 6) [EE8599CC] (AR v2)
Track 15 accurately ripped (confidence 6) [601C635C] (AR v2)
Track 16 accurately ripped (confidence 6) [750E4F9D] (AR v2)
Track 17 accurately ripped (confidence 6) [C11F9BBB] (AR v2)
Track 18 accurately ripped (confidence 6) [7C2780D8] (AR v2)
Track 19 accurately ripped (confidence 6) [273D428D] (AR v2)
Track 20 accurately ripped (confidence 6) [92B5F12D] (AR v2)

All tracks accurately ripped

End of status report

–– CUETools DB Plugin V2.1.6

[CTDB TOCID: fg.njTj4m1hT3J1lEZZYCM7vzPU-] found
Submit result: fg.njTj4m1hT3J1lEZZYCM7vzPU- has been confirmed
Track | CTDB Status
1 | (12/12) Accurately ripped
2 | (12/12) Accurately ripped
3 | (12/12) Accurately ripped
4 | (12/12) Accurately ripped
5 | (12/12) Accurately ripped
6 | (12/12) Accurately ripped
7 | (12/12) Accurately ripped
8 | (12/12) Accurately ripped
9 | (12/12) Accurately ripped
10 | (12/12) Accurately ripped
11 | (12/12) Accurately ripped
12 | (12/12) Accurately ripped
13 | (12/12) Accurately ripped
14 | (12/12) Accurately ripped
15 | (12/12) Accurately ripped
16 | (12/12) Accurately ripped
17 | (12/12) Accurately ripped
18 | (12/12) Accurately ripped
19 | (12/12) Accurately ripped
20 | (12/12) Accurately ripped


==== Log checksum 7953A562828E220BDCC37AD8C48037F84943EE0C02A0543DC8E7E0FC9B947EDA ====


Exact Audio Copy V1.3 from 2. September 2016

EAC extraction logfile from 8. January 2019, 19:41

Claron McFadden, Elisabeth Scholl, Nicholas Hariades, Peer Abilgaard; Joachim Carlos Martini / Handel - Il Trionfo del Tempo e della Verità (Disc 2)

Used drive : ATAPI iHAS124 F Adapter: 1 ID: 0

Read mode : Secure
Utilize accurate stream : Yes
Defeat audio cache : Yes
Make use of C2 pointers : No

Read offset correction : 6
Overread into Lead-In and Lead-Out : No
Fill up missing offset samples with silence : Yes
Delete leading and trailing silent blocks : No
Null samples used in CRC calculations : Yes
Used interface : Native Win32 interface for Win NT & 2000

Used output format : User Defined Encoder
Selected bitrate : 1024 kBit/s
Quality : High
Add ID3 tag : No
Command line compressor : C:\Program Files (x86)\Exact Audio Copy\FLAC\FLAC.EXE
Additional command line options : -6 -V -T "ARTIST=%artist%" -T "TITLE=%title%" -T "ALBUM=%albumtitle%" -T "DATE=%year%" -T "TRACKNUMBER=%tracknr%" -T "GENRE=%genre%" -T "COMMENT=%comment%" -T "BAND=%albuminterpret%" -T "ALBUMARTIST=%albuminterpret%" -T "COMPOSER=%composer%" %haslyrics%–tag-from-file=LYRICS="%lyricsfile%"%haslyrics% -T "DISCNUMBER=%cdnumber%" -T "TOTALDISCS=%totalcds%" -T "TOTALTRACKS=%numtracks%" %hascover%–picture="%coverfile%"%hascover% %source% -o %dest%


TOC of the extracted CD

Track | Start | Length | Start sector | End sector
––––––––––––––––––––––––––––-
1 | 0:00.00 | 3:02.12 | 0 | 13661
2 | 3:02.12 | 4:58.65 | 13662 | 36076
3 | 8:01.02 | 1:06.33 | 36077 | 41059
4 | 9:07.35 | 1:38.27 | 41060 | 48436
5 | 10:45.62 | 0:56.45 | 48437 | 52681
6 | 11:42.32 | 1:08.68 | 52682 | 57849
7 | 12:51.25 | 0:06.70 | 57850 | 58369
8 | 12:58.20 | 7:14.47 | 58370 | 90966
9 | 20:12.67 | 0:17.18 | 90967 | 92259
10 | 20:30.10 | 3:22.50 | 92260 | 107459
11 | 23:52.60 | 1:59.67 | 107460 | 116451
12 | 25:52.52 | 0:47.20 | 116452 | 119996
13 | 26:39.72 | 6:05.08 | 119997 | 147379
14 | 32:45.05 | 1:12.57 | 147380 | 152836
15 | 33:57.62 | 4:57.10 | 152837 | 175121
16 | 38:54.72 | 0:21.60 | 175122 | 176756
17 | 39:16.57 | 2:55.05 | 176757 | 189886
18 | 42:11.62 | 1:11.73 | 189887 | 195284
19 | 43:23.60 | 3:15.22 | 195285 | 209931
20 | 46:39.07 | 1:03.43 | 209932 | 214699
21 | 47:42.50 | 5:29.52 | 214700 | 239426
22 | 53:12.27 | 0:17.58 | 239427 | 240759
23 | 53:30.10 | 3:47.45 | 240760 | 257829
24 | 57:17.55 | 0:25.32 | 257830 | 259736
25 | 57:43.12 | 1:49.35 | 259737 | 267946
26 | 59:32.47 | 0:41.08 | 267947 | 271029
27 | 60:13.55 | 3:17.45 | 271030 | 285849
28 | 63:31.25 | 0:26.65 | 285850 | 287864
29 | 63:58.15 | 3:45.47 | 287865 | 304786
30 | 67:43.62 | 0:30.20 | 304787 | 307056
31 | 68:14.07 | 1:52.60 | 307057 | 315516
32 | 70:06.67 | 2:09.08 | 315517 | 325199


Range status and errors

Selected range

Filename C:\EACRip\HANDEL\Handel - Il Trionfo del Tempo e della Verità (Joachim Carlos Martini) (2000)\CD2\Handel - Il Trionfo del Tempo e della Verita (Disc 2) - Joachim Carlos Martini.wav

Peak level 90.8 %
Extraction speed 9.7 X
Range quality 100.0 %
Test CRC 37C45374
Copy CRC 37C45374
Copy OK

No errors occurred


AccurateRip summary

Track 1 cannot be verified as accurate (confidence 3) [5E53A4C2], AccurateRip returned [02961232] (AR v2)
Track 2 cannot be verified as accurate (confidence 3) [AFFCA0C1], AccurateRip returned [588099CB] (AR v2)
Track 3 cannot be verified as accurate (confidence 3) [D97C9ADF], AccurateRip returned [3C431227] (AR v2)
Track 4 cannot be verified as accurate (confidence 3) [67973251], AccurateRip returned [12DFDB7E] (AR v2)
Track 5 cannot be verified as accurate (confidence 3) [44EA02F6], AccurateRip returned [9B873A4C] (AR v2)
Track 6 cannot be verified as accurate (confidence 3) [3BB69C57], AccurateRip returned [B3EAC1D8] (AR v2)
Track 7 cannot be verified as accurate (confidence 3) [C0B1BE63], AccurateRip returned [6BB02DE3] (AR v2)
Track 8 cannot be verified as accurate (confidence 3) [2B0F8F41], AccurateRip returned [C08B59DF] (AR v2)
Track 9 cannot be verified as accurate (confidence 3) [EA282CCE], AccurateRip returned [1CB1D87F] (AR v2)
Track 10 cannot be verified as accurate (confidence 3) [56888463], AccurateRip returned [2D069047] (AR v2)
Track 11 cannot be verified as accurate (confidence 3) [F5731FDF], AccurateRip returned [B2C635A9] (AR v2)
Track 12 cannot be verified as accurate (confidence 3) [6BF39F90], AccurateRip returned [21B2CB7E] (AR v2)
Track 13 cannot be verified as accurate (confidence 3) [B469480D], AccurateRip returned [6DF3009F] (AR v2)
Track 14 cannot be verified as accurate (confidence 3) [BD7A9090], AccurateRip returned [A451ED00] (AR v2)
Track 15 cannot be verified as accurate (confidence 3) [FE1919A5], AccurateRip returned [BCBBCF6A] (AR v2)
Track 16 cannot be verified as accurate (confidence 3) [1C427550], AccurateRip returned [2FC04980] (AR v2)
Track 17 cannot be verified as accurate (confidence 3) [CFC6237C], AccurateRip returned [2BA4097A] (AR v2)
Track 18 cannot be verified as accurate (confidence 3) [F83B7159], AccurateRip returned [F894D96C] (AR v2)
Track 19 cannot be verified as accurate (confidence 3) [48FEA73D], AccurateRip returned [21148CDD] (AR v2)
Track 20 cannot be verified as accurate (confidence 3) [F9BF187F], AccurateRip returned [9F0CBB1F] (AR v2)
Track 21 cannot be verified as accurate (confidence 3) [F28C5675], AccurateRip returned [054A46DE] (AR v2)
Track 22 cannot be verified as accurate (confidence 3) [A5F436BB], AccurateRip returned [189C3D98] (AR v2)
Track 23 cannot be verified as accurate (confidence 3) [0BA90975], AccurateRip returned [820D4CB0] (AR v2)
Track 24 cannot be verified as accurate (confidence 3) [29E20971], AccurateRip returned [213F275D] (AR v2)
Track 25 cannot be verified as accurate (confidence 3) [F98155A7], AccurateRip returned [60F9C898] (AR v2)
Track 26 cannot be verified as accurate (confidence 3) [12296CB1], AccurateRip returned [2829B9E3] (AR v2)
Track 27 cannot be verified as accurate (confidence 3) [84F4F6E8], AccurateRip returned [8BCDDFC2] (AR v2)
Track 28 cannot be verified as accurate (confidence 3) [FCB1D624], AccurateRip returned [CB009CD1] (AR v2)
Track 29 cannot be verified as accurate (confidence 3) [E98A9601], AccurateRip returned [13637DB6] (AR v2)
Track 30 cannot be verified as accurate (confidence 3) [0BA82767], AccurateRip returned [CC198633] (AR v2)
Track 31 cannot be verified as accurate (confidence 3) [EE8F7553], AccurateRip returned [365E89E6] (AR v2)
Track 32 cannot be verified as accurate (confidence 3) [6C9CB0FA], AccurateRip returned [4914DD72] (AR v2)

No tracks could be verified as accurate
You may have a different pressing from the one(s) in the database

End of status report

–– CUETools DB Plugin V2.1.6

[CTDB TOCID: p6.PldTA2jqvWErD4hcosHvoEu4-] found
Submit result: p6.PldTA2jqvWErD4hcosHvoEu4- has been confirmed
Track | CTDB Status
1 | (12/12) Accurately ripped
2 | (12/12) Accurately ripped
3 | (12/12) Accurately ripped
4 | (12/12) Accurately ripped
5 | (12/12) Accurately ripped
6 | (12/12) Accurately ripped
7 | (12/12) Accurately ripped
8 | (12/12) Accurately ripped
9 | (12/12) Accurately ripped
10 | (12/12) Accurately ripped
11 | (12/12) Accurately ripped
12 | (12/12) Accurately ripped
13 | (12/12) Accurately ripped
14 | (12/12) Accurately ripped
15 | (12/12) Accurately ripped
16 | (12/12) Accurately ripped
17 | (12/12) Accurately ripped
18 | (12/12) Accurately ripped
19 | (12/12) Accurately ripped
20 | (12/12) Accurately ripped
21 | (12/12) Accurately ripped
22 | (12/12) Accurately ripped
23 | (12/12) Accurately ripped
24 | (12/12) Accurately ripped
25 | (12/12) Accurately ripped
26 | (12/12) Accurately ripped
27 | (12/12) Accurately ripped
28 | (12/12) Accurately ripped
29 | (12/12) Accurately ripped
30 | (12/12) Accurately ripped
31 | (12/12) Accurately ripped
32 | (12/12) Accurately ripped


==== Log checksum BDC3657BC4CAE7CAB1E21B1E22F7FF91854AF84F49BE0041B0C136EC875FBEF7 ====


Exact Audio Copy V1.3 from 2. September 2016

EAC extraction logfile from 8. January 2019, 20:20

Claron McFadden, Elisabeth Scholl, Nicholas Hariades, Peer Abilgaard; Joachim Carlos Martini / Handel - Il Trionfo del Tempo e della Verità (Disc 3)

Used drive : ATAPI iHAS124 F Adapter: 1 ID: 0

Read mode : Secure
Utilize accurate stream : Yes
Defeat audio cache : Yes
Make use of C2 pointers : No

Read offset correction : 6
Overread into Lead-In and Lead-Out : No
Fill up missing offset samples with silence : Yes
Delete leading and trailing silent blocks : No
Null samples used in CRC calculations : Yes
Used interface : Native Win32 interface for Win NT & 2000

Used output format : User Defined Encoder
Selected bitrate : 1024 kBit/s
Quality : High
Add ID3 tag : No
Command line compressor : C:\Program Files (x86)\Exact Audio Copy\FLAC\FLAC.EXE
Additional command line options : -6 -V -T "ARTIST=%artist%" -T "TITLE=%title%" -T "ALBUM=%albumtitle%" -T "DATE=%year%" -T "TRACKNUMBER=%tracknr%" -T "GENRE=%genre%" -T "COMMENT=%comment%" -T "BAND=%albuminterpret%" -T "ALBUMARTIST=%albuminterpret%" -T "COMPOSER=%composer%" %haslyrics%–tag-from-file=LYRICS="%lyricsfile%"%haslyrics% -T "DISCNUMBER=%cdnumber%" -T "TOTALDISCS=%totalcds%" -T "TOTALTRACKS=%numtracks%" %hascover%–picture="%coverfile%"%hascover% %source% -o %dest%


TOC of the extracted CD

Track | Start | Length | Start sector | End sector
––––––––––––––––––––––––––––-
1 | 0:00.00 | 1:38.35 | 0 | 7384
2 | 1:38.35 | 1:33.74 | 7385 | 14433
3 | 3:12.34 | 1:49.43 | 14434 | 22651
4 | 5:02.02 | 4:06.50 | 22652 | 41151
5 | 9:08.52 | 6:55.25 | 41152 | 72301
6 | 16:04.02 | 0:43.18 | 72302 | 75544
7 | 16:47.20 | 4:27.17 | 75545 | 95586
8 | 21:14.37 | 0:30.35 | 95587 | 97871
9 | 21:44.72 | 2:45.53 | 97872 | 110299
10 | 24:30.50 | 0:54.47 | 110300 | 114396
11 | 25:25.22 | 4:20.03 | 114397 | 133899
12 | 29:45.25 | 1:22.70 | 133900 | 140119
13 | 31:08.20 | 5:51.02 | 140120 | 166446
14 | 36:59.22 | 0:43.30 | 166447 | 169701
15 | 37:42.52 | 5:22.65 | 169702 | 193916
16 | 43:05.42 | 0:38.70 | 193917 | 196836
17 | 43:44.37 | 5:34.33 | 196837 | 221919
18 | 49:18.70 | 5:13.52 | 221920 | 245446
19 | 54:32.47 | 1:57.28 | 245447 | 254249


Range status and errors

Selected range

Filename C:\EACRip\HANDEL\Handel - Il Trionfo del Tempo e della Verità (Joachim Carlos Martini) (2000)\CD3\Handel - Il Trionfo del Tempo e della Verita (Disc 3) - Joachim Carlos Martini.wav

Peak level 100.0 %
Extraction speed 8.6 X
Range quality 100.0 %
Test CRC 6DC9426F
Copy CRC 6DC9426F
Copy OK

No errors occurred


AccurateRip summary

Track 1 accurately ripped (confidence 3) [0B542DDC] (AR v2)
Track 2 accurately ripped (confidence 3) [D0A387E4] (AR v2)
Track 3 accurately ripped (confidence 3) [6D5E30E7] (AR v2)
Track 4 accurately ripped (confidence 3) [53FD459D] (AR v2)
Track 5 accurately ripped (confidence 3) [9851BE2D] (AR v2)
Track 6 accurately ripped (confidence 3) [6DFBB31F] (AR v2)
Track 7 accurately ripped (confidence 3) [ACBD62A8] (AR v2)
Track 8 accurately ripped (confidence 3) [9974E2C4] (AR v2)
Track 9 accurately ripped (confidence 3) [B0A52AA7] (AR v2)
Track 10 accurately ripped (confidence 3) [7C0311E0] (AR v2)
Track 11 accurately ripped (confidence 3) [6846B11B] (AR v2)
Track 12 accurately ripped (confidence 3) [43ADEE8A] (AR v2)
Track 13 accurately ripped (confidence 2) [6DBC9E60] (AR v2)
Track 14 accurately ripped (confidence 3) [3CA2D0CF] (AR v2)
Track 15 accurately ripped (confidence 3) [E2806A30] (AR v2)
Track 16 accurately ripped (confidence 3) [D4E3FF26] (AR v2)
Track 17 accurately ripped (confidence 3) [21581894] (AR v2)
Track 18 accurately ripped (confidence 3) [3EEA8B7E] (AR v2)
Track 19 accurately ripped (confidence 3) [765A683A] (AR v2)

All tracks accurately ripped

End of status report

–– CUETools DB Plugin V2.1.6

[CTDB TOCID: .KndGJFl43yBFu0wNVBabgFSHzI-] found
Submit result: .KndGJFl43yBFu0wNVBabgFSHzI- has been confirmed
Track | CTDB Status
1 | (9/9) Accurately ripped
2 | (9/9) Accurately ripped
3 | (9/9) Accurately ripped
4 | (9/9) Accurately ripped
5 | (9/9) Accurately ripped
6 | (9/9) Accurately ripped
7 | (9/9) Accurately ripped
8 | (9/9) Accurately ripped
9 | (9/9) Accurately ripped
10 | (9/9) Accurately ripped
11 | (9/9) Accurately ripped
12 | (9/9) Accurately ripped
13 | (9/9) Accurately ripped
14 | (9/9) Accurately ripped
15 | (9/9) Accurately ripped
16 | (9/9) Accurately ripped
17 | (9/9) Accurately ripped
18 | (9/9) Accurately ripped
19 | (9/9) Accurately ripped


==== Log checksum 3610BE171B01EEDADBA1F09F66F2AD1188C951D2E43A45A6E1BAA5E9404A987E ====

Joachim Carlos Martini, Barockorchester Frankfurt, Junge Kantorei - Handel: Il Trionfo del Tempo e della Verita (2000)

Thanks to the original releaser