Tags
Language
Tags

Joe Pass - Guitar Virtuoso (1997) [4CD Box Set]

Posted By: v3122
Joe Pass - Guitar Virtuoso (1997) [4CD Box Set]

Joe Pass - Guitar Virtuoso (1997)
EAC | Flac(Image) + Cue + Log & MP3 CBR 320Kbps
4CD | Pablo Records, 4PACD-4423-2 | ~ 1461 or 724 Mb | Scans(jpg) -> 14 Mb
Jazz / Bop

As this lavishly boxed, four-CD distillation of his Pablo sessions proves, Joe Pass was probably the guitar-playing equivalent of Art Tatum on the Norman Granz roster – not only for his vast output, but also for the all-encompassing, almost orchestral way in which he got around his instrument. The set is divided equally into four sections – disc one for his astounding solo electric and acoustic guitar sides, disc two for studio recordings with various groups, disc three for various live recordings solo and with groups, disc four the delicate Ella Fitzgerald and other duo partner sessions and quartet pieces backing Sarah Vaughan. Though the box is not in chronological order – which is not necessary here, since Pass was essentially a finished, non-evolving artist when he joined Pablo – Jim Ferguson's helpful commentary on the sessions is chronologically organized, balancing out Benny Green's personalized disc-by-disc analysis of the tracks. A couple of tracks with a modern Brazilian rhythm section also stand out, as does the supercharged "Sweet Georgia Brown" with Oscar Peterson and Niels-Henning Orsted Pedersen, and the set's lengthiest item, a fond ten-and-a-half-minute take out on "Stompin' at the Savoy" live at Donte's club in North Hollywood, CA. The latter track and a scant two others are the only ones new to CD, and there are no unreleased goods to be heard, but with five hours of Pass taken a little at a time, this box will wear very well over the years.

by Richard S. Ginell, allmusic
Joe Pass - Guitar Virtuoso (1997):

Joe Pass - Guitar Virtuoso (1997) [4CD Box Set]

Tracklist CD1:

1. Cheek To Cheek
2. Blues For Fred/They All Laughed
3. Hight And Day
4. Here's That Rainy Day
5. Have You Met Miss Jones?
6. Passanova
7. Sultry
8. Indian Summer
9. Lush Life
10. Weaselocity
11. Giant Steps
12. Misty
13. Blues For Basie
14. Star Eyes
15. Blues For Angel
16. Song For Ellen
17. How Deep Is The Ocean?

EAC extraction logfile from 18. March 2006, 9:02 for CD
Joe Pass / Guitar Virtuoso - Disc 1

Used drive : ASUS DRW-1604P Adapter: 1 ID: 0
Read mode : Secure with NO C2, accurate stream, disable cache
Read offset correction : 48
Overread into Lead-In and Lead-Out : No

Used output format : C:\Programmi\FLAC\flac.exe (User Defined Encoder)
320 kBit/s
Additional command line options : –best -V -T "date=%y" -T "genre=%m" %s

Other options :
Fill up missing offset samples with silence : Yes
Delete leading and trailing silent blocks : No
Native Win32 interface for Win NT & 2000


Range status and errors
Selected range
Filename E:\M Y R I P\Joe Pass - Guitar Virtuoso - Disc 1.flac.wav

Peak level 99.9 %
Range quality 100.0 %
CRC 494CB848
Copy OK

No errors occured

End of status report


[CUETools log; Date: 20.02.2018 17:39:15; Version: 2.1.5]
[CTDB TOCID: fQWRVnJ6CWwNdJuDSr9BHhQLPRk-] found.
Track | CTDB Status
1 | (18/18) Accurately ripped
2 | (18/18) Accurately ripped
3 | (18/18) Accurately ripped
4 | (18/18) Accurately ripped
5 | (18/18) Accurately ripped
6 | (18/18) Accurately ripped
7 | (18/18) Accurately ripped
8 | (18/18) Accurately ripped
9 | (17/18) Accurately ripped
10 | (18/18) Accurately ripped
11 | (17/18) Accurately ripped
12 | (17/18) Accurately ripped
13 | (18/18) Accurately ripped
14 | (17/18) Accurately ripped
15 | (18/18) Accurately ripped
16 | (18/18) Accurately ripped
17 | (18/18) Accurately ripped
[AccurateRip ID: 0030422c-025aeeed-0110f211] found.
Track [ CRC | V2 ] Status
01 [be058252|1b79552e] (00+04/13) Accurately ripped
02 [f981af63|1c0ada35] (00+04/14) Accurately ripped
03 [34555c26|89109bc0] (00+04/14) Accurately ripped
04 [eab662ad|1f2aece9] (00+04/14) Accurately ripped
05 [61e4a2bd|111fcb44] (00+04/14) Accurately ripped
06 [b662d3b3|a8af982e] (00+04/14) Accurately ripped
07 [6313f0f2|93f41515] (00+04/14) Accurately ripped
08 [a1efcba6|6ca446f6] (00+04/14) Accurately ripped
09 [1d5a1cf4|a9a247d6] (00+04/14) Accurately ripped
10 [0447b7db|af23f74b] (00+04/14) Accurately ripped
11 [a541501e|40322503] (00+04/14) Accurately ripped
12 [f1f76b55|f1d1af36] (00+04/14) Accurately ripped
13 [e69db8d4|2bb9e93c] (00+04/14) Accurately ripped
14 [60a89807|b574fcc9] (00+04/14) Accurately ripped
15 [df45cb45|99ab6889] (00+04/14) Accurately ripped
16 [b9485990|8955a4d2] (00+04/14) Accurately ripped
17 [674fae98|7dd1a21f] (00+04/13) Accurately ripped
Offsetted by -1318:
01 [0281ad0b] (00/13) No match (V2 was not tested)
02 [54cc3bda] (00/14) No match (V2 was not tested)
03 [d9dcc66e] (00/14) No match (V2 was not tested)
04 [53b8857b] (00/14) No match (V2 was not tested)
05 [f4f9ca88] (00/14) No match (V2 was not tested)
06 [320da61e] (00/14) No match (V2 was not tested)
07 [8404f0b6] (00/14) No match (V2 was not tested)
08 [2d908d13] (00/14) No match (V2 was not tested)
09 [2c69a4b8] (00/14) No match (V2 was not tested)
10 [2ce178c0] (00/14) No match (V2 was not tested)
11 [4f652e2a] (00/14) No match (V2 was not tested)
12 [d6e88889] (00/14) No match (V2 was not tested)
13 [f9c51a16] (00/14) No match (V2 was not tested)
14 [33dc12bd] (00/14) No match (V2 was not tested)
15 [8a562ee8] (00/14) No match (V2 was not tested)
16 [f1447a59] (00/14) No match (V2 was not tested)
17 [3ddcbc7a] (00/13) No match (V2 was not tested)
Offsetted by -659:
01 [79241e1f] (00/13) No match (V2 was not tested)
02 [0f482034] (00/14) No match (V2 was not tested)
03 [4dd3943c] (00/14) No match (V2 was not tested)
04 [b67fb7c3] (00/14) No match (V2 was not tested)
05 [ed0eadaa] (00/14) No match (V2 was not tested)
06 [f09724ca] (00/14) No match (V2 was not tested)
07 [42d6c2e3] (00/14) No match (V2 was not tested)
08 [cc418ee1] (00/14) No match (V2 was not tested)
09 [23aa1919] (00/14) No match (V2 was not tested)
10 [09297117] (00/14) No match (V2 was not tested)
11 [fa533f24] (00/14) No match (V2 was not tested)
12 [646ff9ef] (00/14) No match (V2 was not tested)
13 [70316975] (00/14) No match (V2 was not tested)
14 [59ab75cb] (00/14) No match (V2 was not tested)
15 [4a346ee3] (00/14) No match (V2 was not tested)
16 [186ad695] (00/14) No match (V2 was not tested)
17 [87203223] (00/13) No match (V2 was not tested)

Track Peak [ CRC32 ] [W/O NULL] [ LOG ]
– 99,9 [494CB848] [81F4815A] CRC32
01 99,8 [AFCAB236] [2E52AF24]
02 99,9 [6EE8F5EF] [050A4C3A]
03 79,3 [4FBFC53B] [9478ED8E]
04 68,4 [7CB2387E] [1B58E893]
05 81,6 [13B65046] [9A54D3BF]
06 99,6 [9EFA3F1D] [BC6158F5]
07 83,0 [9E17E786] [FA20A658]
08 70,2 [7BE19507] [40E49EBD]
09 79,3 [0064B34A] [FB79C26C]
10 98,7 [1F3828F9] [C7E52505]
11 99,5 [4D0525BD] [8F18DC56]
12 97,8 [02048C92] [D2CDAB9C]
13 99,8 [CB291787] [E7EAEA6E]
14 72,8 [B5065EAA] [47B2CCFF]
15 66,3 [6EA457D5] [A5B2A781]
16 68,8 [5E6FE08C] [521E5F0B]
17 66,1 [5859A54F] [09C7B427]


Joe Pass - Guitar Virtuoso (1997) [4CD Box Set]

Tracklist CD2:

1. Relaxin' At Camarillo
2. Tenderly
3. Gee Baby, Ain't I Good To You?
4. Do Nothin' Till You Hear From Me
5. Samba De Orfeu
6. Seulb
7. Riff Blues
8. Bluesology
9. Cotton Tall
10. O Barquinho (Little Boat)
11. The Gentle Rain (Chuva Delicada)
12. As Long As I Live
13. It Ain't Neccessarily So
14. D-Joe
15. Anouman
16. Belleville

EAC extraction logfile from 18. March 2006, 9:32 for CD
Joe Pass / Guitar Virtuoso - Disc 2

Used drive : ASUS DRW-1604P Adapter: 1 ID: 0
Read mode : Secure with NO C2, accurate stream, disable cache
Read offset correction : 48
Overread into Lead-In and Lead-Out : No

Used output format : C:\Programmi\FLAC\flac.exe (User Defined Encoder)
320 kBit/s
Additional command line options : –best -V -T "date=%y" -T "genre=%m" %s

Other options :
Fill up missing offset samples with silence : Yes
Delete leading and trailing silent blocks : No
Native Win32 interface for Win NT & 2000


Range status and errors
Selected range
Filename E:\M Y R I P\Joe Pass - Guitar Virtuoso - Disc 2.flac.wav

Peak level 100.0 %
Range quality 100.0 %
CRC A3799E36
Copy OK

No errors occured

End of status report


[CUETools log; Date: 20.02.2018 17:39:45; Version: 2.1.5]
[CTDB TOCID: aDugF_nCRwsE6gu8997cZPI_Zcs-] found.
Track | CTDB Status
1 | (17/17) Accurately ripped
2 | (17/17) Accurately ripped
3 | (17/17) Accurately ripped
4 | (17/17) Accurately ripped
5 | (17/17) Accurately ripped
6 | (17/17) Accurately ripped
7 | (17/17) Accurately ripped
8 | (17/17) Accurately ripped
9 | (16/17) Accurately ripped
10 | (17/17) Accurately ripped
11 | (17/17) Accurately ripped
12 | (17/17) Accurately ripped
13 | (16/17) Accurately ripped
14 | (17/17) Accurately ripped
15 | (17/17) Accurately ripped
16 | (16/17) Accurately ripped
[AccurateRip ID: 002b8fc4-020a8fea-ea115510] found.
Track [ CRC | V2 ] Status
01 [101c7175|bac0c5bd] (00+04/13) Accurately ripped
02 [0639f9d1|758bef9a] (00+04/14) Accurately ripped
03 [abfccc77|b5996ecf] (00+04/14) Accurately ripped
04 [4e6123bc|183a0077] (00+04/14) Accurately ripped
05 [74b6f524|6f5aaf41] (00+04/14) Accurately ripped
06 [1c746d8c|7ba7605b] (00+04/14) Accurately ripped
07 [36907414|162f4f8f] (00+04/14) Accurately ripped
08 [9ce50765|1c81359b] (00+04/14) Accurately ripped
09 [b236c557|40c0b808] (00+04/14) Accurately ripped
10 [0a203cd1|6e6be0db] (00+04/14) Accurately ripped
11 [9b3f47be|3dc45c5c] (00+04/14) Accurately ripped
12 [8e618f3d|8dee22b0] (00+04/14) Accurately ripped
13 [134b3d6a|6574b9a3] (00+04/14) Accurately ripped
14 [954e453f|2c8dc0b3] (00+04/14) Accurately ripped
15 [6def5cf6|aefd4236] (00+04/14) Accurately ripped
16 [b3b36b42|25a75a99] (00+04/14) Accurately ripped
Offsetted by -659:
01 [f92f4768] (00/13) No match (V2 was not tested)
02 [235dac54] (00/14) No match (V2 was not tested)
03 [e546719a] (00/14) No match (V2 was not tested)
04 [1cf8f27c] (00/14) No match (V2 was not tested)
05 [d8f0e7d5] (00/14) No match (V2 was not tested)
06 [51509c4f] (00/14) No match (V2 was not tested)
07 [0555bd0d] (00/14) No match (V2 was not tested)
08 [39a40b26] (00/14) No match (V2 was not tested)
09 [5ca52abe] (00/14) No match (V2 was not tested)
10 [dfb2d76b] (00/14) No match (V2 was not tested)
11 [c764109e] (00/14) No match (V2 was not tested)
12 [d6de4ad6] (00/14) No match (V2 was not tested)
13 [aada641b] (00/14) No match (V2 was not tested)
14 [40161ebf] (00/14) No match (V2 was not tested)
15 [8397d62e] (00/14) No match (V2 was not tested)
16 [fcfacde4] (00/14) No match (V2 was not tested)

Track Peak [ CRC32 ] [W/O NULL] [ LOG ]
– 100,0 [A3799E36] [99E779BC] CRC32
01 100,0 [B77E46C2] [7A03043F]
02 92,5 [F4CA635E] [E6836BA8]
03 100,0 [D5AF9985] [650C33D2]
04 99,6 [994423A5] [4F2A377A]
05 99,9 [7DC16334] [DD79439D]
06 99,9 [D1C02883] [AC441133]
07 100,0 [1BC36A86] [FA6E522B]
08 100,0 [6D4E8F6F] [0366B401]
09 99,8 [156C9E80] [D0BA90FF]
10 99,9 [2F5BF4E9] [C0C74E0B]
11 99,8 [32ED2A87] [1BA0B36D]
12 99,9 [2E0A6CEF] [7F22D94C]
13 100,0 [18FDDA7F] [0A96AE11]
14 92,0 [D9BBEF49] [D5185411]
15 100,0 [4903D47F] [A04A67A8]
16 100,0 [3D620ECD] [6EB55F2B]


Joe Pass - Guitar Virtuoso (1997) [4CD Box Set]

Tracklist CD3:

1. Eric's Smoozie Blues
2. Beautiful Love
3. A Time For Love
4. Tarde
5. Gentle Tears
6. Lover Man (Oh, Where Can You Be?)
7. Oleo
8. Blues For Monty
9. Stompin' At The Savoy
10. Ornithology
11. Samba De Orfeu
12. Dnna Lee
13. Sweet Georgia Brown

EAC extraction logfile from 18. March 2006, 9:57 for CD
Joe Pass / Guitar Virtuoso - Disc 3

Used drive : ASUS DRW-1604P Adapter: 1 ID: 0
Read mode : Secure with NO C2, accurate stream, disable cache
Read offset correction : 48
Overread into Lead-In and Lead-Out : No

Used output format : C:\Programmi\FLAC\flac.exe (User Defined Encoder)
320 kBit/s
Additional command line options : –best -V -T "date=%y" -T "genre=%m" %s

Other options :
Fill up missing offset samples with silence : Yes
Delete leading and trailing silent blocks : No
Native Win32 interface for Win NT & 2000


Range status and errors
Selected range
Filename E:\M Y R I P\disc 3\Joe Pass - Guitar Virtuoso - Disc 3.flac.wav

Peak level 100.0 %
Range quality 100.0 %
CRC FC17502D
Copy OK

No errors occured

End of status report


[CUETools log; Date: 20.02.2018 17:40:12; Version: 2.1.5]
[CTDB TOCID: jgfnLgC7IpkpyZTNL48XLhRxyMk-] found.
Track | CTDB Status
1 | (14/14) Accurately ripped
2 | (14/14) Accurately ripped
3 | (14/14) Accurately ripped
4 | (14/14) Accurately ripped
5 | (14/14) Accurately ripped
6 | (14/14) Accurately ripped
7 | (14/14) Accurately ripped
8 | (14/14) Accurately ripped
9 | (14/14) Accurately ripped
10 | (14/14) Accurately ripped
11 | (14/14) Accurately ripped
12 | (14/14) Accurately ripped
13 | (14/14) Accurately ripped
[AccurateRip ID: 0023c91b-016a35cf-b8119d0d] found.
Track [ CRC | V2 ] Status
01 [6b8cc0f8|82361bda] (00+04/14) Accurately ripped
02 [7fbcb3db|919359be] (00+04/14) Accurately ripped
03 [947369ca|d5dd30c0] (00+04/14) Accurately ripped
04 [47614c6b|bac07dce] (00+04/14) Accurately ripped
05 [441aacad|1b8d5c8d] (00+04/14) Accurately ripped
06 [d98507fc|6b656ae5] (00+04/14) Accurately ripped
07 [a4d13da9|7c039a9e] (00+04/14) Accurately ripped
08 [65ea7194|14b62be9] (00+04/14) Accurately ripped
09 [f1ed88fd|cab69ed6] (00+04/14) Accurately ripped
10 [ab601059|6bbac8e9] (00+04/14) Accurately ripped
11 [fe953720|2d6a92d2] (00+04/14) Accurately ripped
12 [3a6e3178|1d1bf2b2] (00+04/14) Accurately ripped
13 [75631358|90f1ab5b] (00+04/14) Accurately ripped
Offsetted by -659:
01 [2984a235] (00/14) No match (V2 was not tested)
02 [09ce3ef2] (00/14) No match (V2 was not tested)
03 [5c2de69b] (00/14) No match (V2 was not tested)
04 [3905469d] (00/14) No match (V2 was not tested)
05 [4045ed70] (00/14) No match (V2 was not tested)
06 [c1324e6d] (00/14) No match (V2 was not tested)
07 [c5542de4] (00/14) No match (V2 was not tested)
08 [d18dbb06] (00/14) No match (V2 was not tested)
09 [b6224ea7] (00/14) No match (V2 was not tested)
10 [cc626c61] (00/14) No match (V2 was not tested)
11 [ec56307a] (00/14) No match (V2 was not tested)
12 [dcd7c2f3] (00/14) No match (V2 was not tested)
13 [ff1fd2e8] (00/14) No match (V2 was not tested)

Track Peak [ CRC32 ] [W/O NULL] [ LOG ]
– 100,0 [FC17502D] [38CD00D0] CRC32
01 100,0 [AFC7BBB8] [27E77150]
02 93,4 [35403540] [D4EB80B2]
03 91,2 [45345B61] [EBEB0865]
04 99,7 [EE6B0D6B] [C90B8617]
05 97,2 [121F599F] [D725723D]
06 99,6 [67C3E03F] [7ECD9034]
07 100,0 [298AF71E] [D165FB27]
08 100,0 [F25A6E1C] [DA4EBC04]
09 95,3 [4818AEF0] [561013A0]
10 98,1 [5FF298FD] [308A2490]
11 75,0 [FEE3CCD7] [FD4ECC71]
12 77,8 [38DD0D98] [076A9D4D]
13 96,2 [69BA025B] [6B053168]


Joe Pass - Guitar Virtuoso (1997) [4CD Box Set]

Tracklist CD4:

1. You Took Advantage Of Me
2. All Too Soon
3. I Didn't Know About You
4. You Go To My Head
5. Easy Living
6. Why Don't You Do Right?
7. Alone Together
8. Balleywick
9. S'il Vous Plait
10. Lover Man (Oh, Where Can You Be?)
11. Tricrotism
12. Blues For 2
13. Dindi
14. Takeoff
15. My Old Flame
16. I Didn't Know What Time It Was
17. Autumn Leaves

EAC extraction logfile from 18. March 2006, 11:19 for CD
Joe Pass / Guitar Virtuoso - Disc 4

Used drive : ASUS DRW-1604P Adapter: 1 ID: 0
Read mode : Secure with NO C2, accurate stream, disable cache
Read offset correction : 48
Overread into Lead-In and Lead-Out : No

Used output format : C:\Programmi\FLAC\flac.exe (User Defined Encoder)
320 kBit/s
Additional command line options : –best -V -T "date=%y" -T "genre=%m" %s

Other options :
Fill up missing offset samples with silence : Yes
Delete leading and trailing silent blocks : No
Native Win32 interface for Win NT & 2000


Range status and errors
Selected range
Filename E:\M Y R I P\disc 4\Joe Pass - Guitar Virtuoso - Disc 4.flac.wav

Peak level 100.0 %
Range quality 100.0 %
CRC F6400F21
Copy OK

No errors occured

End of status report


[CUETools log; Date: 20.02.2018 17:40:37; Version: 2.1.5]
[CTDB TOCID: JzGxZEpjB4Mqa1lUMFaYbVyRcYs-] found.
Track | CTDB Status
1 | (20/20) Accurately ripped
2 | (19/20) Accurately ripped
3 | (20/20) Accurately ripped
4 | (20/20) Accurately ripped
5 | (20/20) Accurately ripped
6 | (20/20) Accurately ripped
7 | (20/20) Accurately ripped
8 | (20/20) Accurately ripped
9 | (20/20) Accurately ripped
10 | (20/20) Accurately ripped
11 | (20/20) Accurately ripped
12 | (20/20) Accurately ripped
13 | (20/20) Accurately ripped
14 | (20/20) Accurately ripped
15 | (20/20) Accurately ripped
16 | (19/20) Accurately ripped
17 | (20/20) Accurately ripped
[AccurateRip ID: 002ecaad-02549ccd-f4125711] found.
Track [ CRC | V2 ] Status
01 [6a190a05|ede19582] (00+05/14) Accurately ripped
02 [3ebcbe3d|6c5e8522] (00+05/15) Accurately ripped
03 [6ed481fa|76f3791d] (00+05/15) Accurately ripped
04 [51cd912d|55539202] (00+05/15) Accurately ripped
05 [07ccfa84|7c8404e3] (00+05/15) Accurately ripped
06 [b8ff33e7|e346b05c] (00+05/15) Accurately ripped
07 [76a4d712|c69aed00] (00+05/15) Accurately ripped
08 [2668136c|7e562b1c] (00+05/15) Accurately ripped
09 [24e59709|fcb9910a] (00+05/15) Accurately ripped
10 [348dd6ac|8944035d] (00+05/15) Accurately ripped
11 [427d5d70|a5478274] (00+05/15) Accurately ripped
12 [9bc6fda5|1b7ef186] (00+05/15) Accurately ripped
13 [07f1f036|e16e14ed] (00+05/15) Accurately ripped
14 [fef6d80b|7bb7e758] (00+05/15) Accurately ripped
15 [3ac3aca9|767b06e1] (00+05/15) Accurately ripped
16 [a6507c51|a00d52fe] (00+05/15) Accurately ripped
17 [c9e5e2b5|532ce82e] (00+04/14) Accurately ripped
Offsetted by -659:
01 [14ab9241] (00/14) No match (V2 was not tested)
02 [88633e7f] (00/15) No match (V2 was not tested)
03 [fd0ca74d] (00/15) No match (V2 was not tested)
04 [b7cf6fd3] (00/15) No match (V2 was not tested)
05 [de833f44] (00/15) No match (V2 was not tested)
06 [88fc0e17] (00/15) No match (V2 was not tested)
07 [c0c46bca] (00/15) No match (V2 was not tested)
08 [7f6783bf] (00/15) No match (V2 was not tested)
09 [ef4f0f26] (00/15) No match (V2 was not tested)
10 [c1bfeb46] (00/15) No match (V2 was not tested)
11 [8e66ada6] (00/15) No match (V2 was not tested)
12 [c83bb6ab] (00/15) No match (V2 was not tested)
13 [59f46411] (00/15) No match (V2 was not tested)
14 [ace03620] (00/15) No match (V2 was not tested)
15 [ba1fef02] (00/15) No match (V2 was not tested)
16 [c053e4ce] (00/15) No match (V2 was not tested)
17 [228b1dd3] (00/14) No match (V2 was not tested)

Track Peak [ CRC32 ] [W/O NULL] [ LOG ]
– 100,0 [F6400F21] [8A081A1F] CRC32
01 87,8 [4386E9E2] [134F7D19]
02 71,5 [C944D308] [AC6A09BF]
03 99,9 [4DAB7E09] [5D463E3A]
04 100,0 [28C23BB0] [E420403F]
05 85,1 [B8D5B6A7] [A671117B]
06 81,9 [E1612934] [575C1E0F]
07 88,9 [5227819D] [A352B5DC]
08 89,0 [8312CEF0] [68121815]
09 69,1 [71C21D23] [F93A6F3A]
10 99,7 [5018139C] [5FD019E6]
11 99,6 [2193EA91] [C63151F1]
12 97,6 [DF910B39] [22D02B41]
13 100,0 [2B2E3C30] [BB2B7416]
14 99,9 [E8B820B7] [D71C728C]
15 80,4 [9642BD7C] [F91B6C6A]
16 99,9 [FF87AE3F] [955477D5]
17 99,8 [EEB763FB] [4CB47F5A]


Joe Pass - Guitar Virtuoso (1997) [4CD Box Set]

All thanks go to nepekyp-01

Download Joe Pass - Guitar Virtuoso (1997):