Tags
Language
Tags

Joe Walsh - You Can't Argue With A Sick Mind (1976)

Posted By: v3122
Joe Walsh - You Can't Argue With A Sick Mind (1976)

Joe Walsh - You Can't Argue With A Sick Mind (1976)
EAC | Flac(Image) + Cue + Log & MP3 CBR 320Kbps
1990 | MCA Records, MCAD-31120 | ~ 215 or 86 Mb | Covers
Blues Rock / Folk Rock

Recorded live just before Joe Walsh joined up with the Eagles full-time, You Can't Argue with a Sick Mind contains six of Walsh's better-known songs. Things start off with his last hit with the James Gang, "Walk Away," and then the album makes its way through "Meadows" and 18 minutes of "Rocky Mountain Way." The crowd loved it. Follow all that with "Time Out," then do "Help Me Thru the Night" acoustically with future bandmates Henley, Frey, and Felder helping out, and close things up with a profound and majestic "Turn to Stone," and you've got one heck of a Joe Walsh concert souvenir.

by James Chrispell, AMG

Joe Walsh - You Can't Argue With A Sick Mind (1976):

Joe Walsh - You Can't Argue With A Sick Mind (1976)

Tracklist:

01. Walk Away (3:18)
02. Meadows (7:06)
03. Rocky Mountain Way (7:38)
04. Time Out (4:20)
05. Help Me Thru The Night (3:42)
06. Turn To Stone (8:45)

Exact Audio Copy V0.99 prebeta 5 from 4. May 2009

EAC extraction logfile from 29. January 2011, 11:51

Joe Walsh / You Can't Argue with a Sick Mind

Used drive : HL-DT-STDVD-ROM GDRH20N Adapter: 0 ID: 1

Read mode : Secure
Utilize accurate stream : Yes
Defeat audio cache : Yes
Make use of C2 pointers : No

Read offset correction : 102
Overread into Lead-In and Lead-Out : No
Fill up missing offset samples with silence : Yes
Delete leading and trailing silent blocks : No
Null samples used in CRC calculations : Yes
Used interface : Native Win32 interface for Win NT & 2000
Gap handling : Appended to previous track

Used output format : User Defined Encoder
Selected bitrate : 1024 kBit/s
Quality : High
Add ID3 tag : No
Command line compressor : C:\Program Files\Exact Audio Copy\FLAC\FLAC.EXE
Additional command line options : -6 -V -T "ARTIST=%a" -T "TITLE=%t" -T "ALBUM=%g" -T "DATE=%y" -T "TRACKNUMBER=%n" -T "GENRE=%m" -T "COMMENT=%e" %s -o %d


TOC of the extracted CD

Track | Start | Length | Start sector | End sector
––––––––––––––––––––––––––––-
1 | 0:00.00 | 3:22.08 | 0 | 15157
2 | 3:22.08 | 7:08.07 | 15158 | 47264
3 | 10:30.15 | 7:40.55 | 47265 | 81819
4 | 18:10.70 | 4:22.60 | 81820 | 101529
5 | 22:33.55 | 3:43.33 | 101530 | 118287
6 | 26:17.13 | 8:43.62 | 118288 | 157574


Track 1

Filename C:\Documents and Settings\David Swift\My Documents\My Music\EAC Rips\Joe Walsh - You Can't Argue With A Sick Mind [1976] - FLAC\01 - Walk Away.wav

Pre-gap length 0:00:02.00

Peak level 96.3 %
Track quality 100.0 %
Test CRC 72A3ABF3
Copy CRC 72A3ABF3
Accurately ripped (confidence 2) [296FF854]
Copy OK

Track 2

Filename C:\Documents and Settings\David Swift\My Documents\My Music\EAC Rips\Joe Walsh - You Can't Argue With A Sick Mind [1976] - FLAC\02 - Meadows.wav

Pre-gap length 0:00:03.30

Peak level 77.8 %
Track quality 100.0 %
Test CRC 725A6003
Copy CRC 725A6003
Accurately ripped (confidence 2) [7D1A8F1A]
Copy OK

Track 3

Filename C:\Documents and Settings\David Swift\My Documents\My Music\EAC Rips\Joe Walsh - You Can't Argue With A Sick Mind [1976] - FLAC\03 - Rocky Mountain Way.wav

Pre-gap length 0:00:01.96

Peak level 100.0 %
Track quality 100.0 %
Test CRC 04F7C053
Copy CRC 04F7C053
Accurately ripped (confidence 2) [082BCEAA]
Copy OK

Track 4

Filename C:\Documents and Settings\David Swift\My Documents\My Music\EAC Rips\Joe Walsh - You Can't Argue With A Sick Mind [1976] - FLAC\04 - Time Out.wav

Pre-gap length 0:00:02.36

Peak level 91.2 %
Track quality 100.0 %
Test CRC CA50E6B3
Copy CRC CA50E6B3
Accurately ripped (confidence 2) [AB6A0882]
Copy OK

Track 5

Filename C:\Documents and Settings\David Swift\My Documents\My Music\EAC Rips\Joe Walsh - You Can't Argue With A Sick Mind [1976] - FLAC\05 - Help Me Make It Thru The Night.wav

Pre-gap length 0:00:02.60

Peak level 82.0 %
Track quality 100.0 %
Test CRC 01F8D26F
Copy CRC 01F8D26F
Accurately ripped (confidence 2) [9EBA7EF9]
Copy OK

Track 6

Filename C:\Documents and Settings\David Swift\My Documents\My Music\EAC Rips\Joe Walsh - You Can't Argue With A Sick Mind [1976] - FLAC\06 - Turn To Stone.wav

Pre-gap length 0:00:01.30

Peak level 81.3 %
Track quality 100.0 %
Test CRC 5FA3A18F
Copy CRC 5FA3A18F
Accurately ripped (confidence 2) [A3865B1C]
Copy OK


All tracks accurately ripped

No errors occurred

End of status report

foobar2000 1.2.9 / Dynamic Range Meter 1.1.1
log date: 2015-04-27 13:15:24

––––––––––––––––––––––––––––––––––––––––
Analyzed: Joe Walsh / You Can't Argue with a Sick Mind
––––––––––––––––––––––––––––––––––––––––

DR Peak RMS Duration Track
––––––––––––––––––––––––––––––––––––––––
DR13 -0.33 dB -15.58 dB 3:22 01-Walk Away
DR13 -2.17 dB -18.03 dB 7:08 02-Meadows
DR15 0.00 dB -17.06 dB 7:41 03-Rocky Mountain Way
DR13 -0.79 dB -15.99 dB 4:23 04-Time Out
DR12 -1.71 dB -17.97 dB 3:43 05-Help Me Make It Thru The Night
DR12 -1.80 dB -17.97 dB 8:44 06-Turn To Stone
––––––––––––––––––––––––––––––––––––––––

Number of tracks: 6
Official DR value: DR13

Samplerate: 44100 Hz
Channels: 2
Bits per sample: 16
Bitrate: 806 kbps
Codec: FLAC

[CUETools log; Date: 27.04.2015 13:15:39; Version: 2.1.4]
[CTDB TOCID: w.XFclOrUVeaUWbC4aC3dAJTOVg-] found.
Track | CTDB Status
1 | (1/1) Accurately ripped
2 | (1/1) Accurately ripped
3 | (1/1) Accurately ripped
4 | (1/1) Accurately ripped
5 | (1/1) Accurately ripped
6 | (1/1) Accurately ripped
[AccurateRip ID: 0007f5a4-002b06d3-43083506] found.
Track [ CRC | V2 ] Status
01 [296ff854|f9a49711] (05+06/11) Accurately ripped
02 [7d1a8f1a|9b2a4511] (05+06/11) Accurately ripped
03 [082bceaa|176504bd] (05+05/10) Accurately ripped
04 [ab6a0882|11d9b11f] (05+06/11) Accurately ripped
05 [9eba7ef9|832953b4] (05+06/11) Accurately ripped
06 [a3865b1c|b3fbbea4] (05+06/11) Accurately ripped

Track Peak [ CRC32 ] [W/O NULL] [ LOG ]
– 100,0 [4153ECAE] [3D187354]
01 96,3 [72A3ABF3] [DFE92522] CRC32
02 77,8 [725A6003] [853B73BC] CRC32
03 100,0 [04F7C053] [0434C242] CRC32
04 91,2 [CA50E6B3] [A8A03D24] CRC32
05 82,0 [01F8D26F] [9F662FA6] CRC32
06 81,3 [5FA3A18F] [2E88FDBE] CRC32

Joe Walsh - You Can't Argue With A Sick Mind (1976)

All thanks go to the original releaser

Download Joe Walsh - You Can't Argue With A Sick Mind (1976):