Tags
Language
Tags

Joe Albany - Portrait of an Artist (1982) [Reissue 2013]

Posted By: Designol
Joe Albany - Portrait of an Artist (1982) [Reissue 2013]

Joe Albany - Portrait of an Artist (1982) [Reissue 2013]
EAC | FLAC | Image (Cue&Log) ~ 227 Mb | Mp3 (CBR320) ~ 117 Mb | Scans included
Bop, Piano Jazz | Label: Elektra/Musician/Warner | # WPCR-27375 | Time: 00:43:09

This mostly ballad-oriented trio set with bassist George Duvivier and drummer Charlie Persip was pianist Joe Albany's final recording. Albany, whose career (especially on records) did not really get going until his final decade, is in generally good form on such tunes as "Autumn In New York," "They Say It's Wonderful" and "Confirmation." The album concludes with a brief interview that sums up some aspects of his episodic life.

Review by Scott Yanow, Allmusic.com

Joe Albany at Allmusic
Joe Albany at Wiki

Tracklist:

01. Autumn in New York (06:35)
02. Guess I'll Hang My Tears Out to Dry (04:49)
03. For the Little Guy (06:44)
04. They Say It's Wonderful (05:09)
05. Too Late Now (05:31)
06. Confirmation (05:40)
07. Ruby, My Dear (03:45)
08. A Conversation with Joe Albany (04:52)


Exact Audio Copy V1.0 beta 6 from 9. April 2015

EAC extraction logfile from 1. June 2015, 0:12

Joe Albany / Portrait of an Artist

Used drive : ASUS DRW-24B1LT Adapter: 1 ID: 1

Read mode : Secure
Utilize accurate stream : Yes
Defeat audio cache : Yes
Make use of C2 pointers : No

Read offset correction : 6
Overread into Lead-In and Lead-Out : No
Fill up missing offset samples with silence : Yes
Delete leading and trailing silent blocks : No
Null samples used in CRC calculations : Yes
Used interface : Native Win32 interface for Win NT & 2000

Used output format : User Defined Encoder
Selected bitrate : 768 kBit/s
Quality : High
Add ID3 tag : No
Command line compressor : C:\Program Files\Exact Audio Copy\Flac\flac.exe
Additional command line options : -8 -V -T "ARTIST=%artist%" -T "TITLE=%title%" -T "ALBUM=%albumtitle%" -T "DATE=%year%" -T "TRACKNUMBER=%tracknr%" -T "TOTALTRACKS=%numtracks%" -T "GENRE=%genre%" -T "ALBUMARTIST=%albumartist%" -T "ALBUM ARTIST=%albumartist%" -T "COMMENT=EAC Secure Mode, Test & Copy, AccurateRip, FLAC -8" %source%


TOC of the extracted CD

Track | Start | Length | Start sector | End sector
––––––––––––––––––––––––––––-
1 | 0:00.00 | 6:35.48 | 0 | 29672
2 | 6:35.48 | 4:49.55 | 29673 | 51402
3 | 11:25.28 | 6:44.54 | 51403 | 81756
4 | 18:10.07 | 5:09.09 | 81757 | 104940
5 | 23:19.16 | 5:31.53 | 104941 | 129818
6 | 28:50.69 | 5:40.07 | 129819 | 155325
7 | 34:31.01 | 3:45.59 | 155326 | 172259
8 | 38:16.60 | 4:52.23 | 172260 | 194182


Range status and errors

Selected range

Filename F:\audio\Joe Albany - Portrait of an Artist.wav

Peak level 100.0 %
Extraction speed 5.3 X
Range quality 100.0 %
Test CRC 876EAE76
Copy CRC 876EAE76
Copy OK

No errors occurred


AccurateRip summary

Track 1 not present in database
Track 2 not present in database
Track 3 not present in database
Track 4 not present in database
Track 5 not present in database
Track 6 not present in database
Track 7 not present in database
Track 8 not present in database

None of the tracks are present in the AccurateRip database

End of status report

–– CUETools DB Plugin V2.1.6

[CTDB TOCID: ZgW6MWY48Kjq_rA2hq7w27.XfJY-] disk not present in database
Submit result: ZgW6MWY48Kjq_rA2hq7w27.XfJY- has been uploaded


==== Log checksum D593FAA171D916AC77F14CFCF35B0E750F73B7C70E580729C691893901F0F8E7 ====

foobar2000 1.3.8 / Dynamic Range Meter 1.1.1
log date: 2015-06-06 03:19:31

––––––––––––––––––––––––––––––––––––––––
Analyzed: Joe Albany / Portrait of an Artist
––––––––––––––––––––––––––––––––––––––––

DR Peak RMS Duration Track
––––––––––––––––––––––––––––––––––––––––
DR11 0.00 dB -13.12 dB 6:36 01-Autumn in New York
DR13 0.00 dB -15.16 dB 4:50 02-Guess I'll Hang My Tears Out to Dry
DR11 0.00 dB -14.86 dB 6:45 03-For the Little Guy
DR10 0.00 dB -12.74 dB 5:09 04-They Say It's Wonderful
DR12 0.00 dB -15.26 dB 5:32 05-Too Late Now
DR10 0.00 dB -12.09 dB 5:40 06-Confirmation
DR14 0.00 dB -16.74 dB 3:46 07-Ruby, My Dear
DR20 0.00 dB -24.63 dB 4:52 08-A Conversation with Joe Albany
––––––––––––––––––––––––––––––––––––––––

Number of tracks: 8
Official DR value: DR13

Samplerate: 44100 Hz
Channels: 2
Bits per sample: 16
Bitrate: 677 kbps
Codec: FLAC
===============================================================================

Joe 			  		  		  	 			   		  	   		  		  			     	 			   			  	  		 	 	  	 			   		  	   		      			   			 Albany - Portrait of an Artist (1982) [Reissue 2013]

Joe Albany - Portrait of an Artist (1982) [Reissue 2013]

All thanks to original releaser - fiks22

More interesting music in My Blog