Tags
Language
Tags

Joe Bonamassa - Rockin' Christmas Blues (2016) {J&R}

Posted By: tiburon
Joe Bonamassa - Rockin' Christmas Blues (2016) {J&R}

Joe Bonamassa - Rockin' Christmas Blues (2016) {J&R}
EAC 1.3 | FLAC Image level 6 | Cue+Log | Full Scans 400dpi | 214MB + 5% Recovery
MP3 CBR 320 Kbps | 64MB + 5% Recovery
Genre: Blues Rock

I really look forward to the holiday season each year. The precious family time, the tightly wrapped presents, the glistening white snow – ok, no glistening white snow for me anymore, I’m in Florida now. And holiday time means holiday tunes, usually starting in about October these days. But if you’re like me, you’re just a little bit tired of hearing the same holiday jingles over and over again each year. Of course, there’s something fun about the first time you hear “Winter Wonderland” and “The Christmas Song” coming through that department store’s speakers. After all, who doesn’t love the holidays? And by Thanksgiving, I’m already pulling out my copy of Jewel’s first Christmas album – that can be our little secret, by the way. But you and me – deep down we’re blues fans, and after a few weeks of the novelty of Christmas music starts to wear off like yesterday’s aftershave, we’re ready to get back to our musical roots.
Track List
01. Merry Christmas, Blues 4:48
02. Bring Back My Cadillac 3:35
03. Christmas Boogie ( One Little Kiss) 6:53
04. Christmas Date Blues 2:30
05. O Holy Night 4:05
06. Lonesome Christmas 3:27
07. Santa Claus Is Back In Town 2:31

Produced by Joe Bonamassa

Original recording of this album have very low level - the peaks are lower than -5dB. I raised up the record level by 5 dB with Sound Forge Pro. No other processes have been applied.


Exact Audio Copy V1.3 from 2. September 2016

Отчёт EAC об извлечении, выполненном 26. декабря 2018, 14:45

Joe Bonamassa / Rockin' Christmas Blues

Дисковод: _NEC DVD_RW ND-4570A Adapter: 1 ID: 2

Режим чтения : Достоверность
Использование точного потока : Да
Отключение кэша аудио : Да
Использование указателей C2 : Нет

Коррекция смещения при чтении : 48
Способность читать области Lead-in и Lead-out : Нет
Заполнение пропущенных сэмплов тишиной : Да
Удаление блоков с тишиной в начале и конце : Нет
При вычислениях CRC использовались нулевые сэмплы : Да
Интерфейс : Встроенный Win32-интерфейс для Win NT/2000

Выходной формат : Пользовательский кодировщик
Выбранный битрейт : 768 kBit/s
Качество : Высокий
Добавление ID3-тега : Нет
Утилита сжатия : C:\Program Files\Exact Audio Copy\FLAC\FLAC.EXE
Дополнительные параметры : -6 -V -T "ARTIST=%artist%" -T "TITLE=%title%" -T "ALBUM=%albumtitle%" -T "DATE=%year%" -T "TRACKNUMBER=%tracknr%" -T "GENRE=%genre%" -T "COMMENT=%comment%" -T "BAND=%albuminterpret%" -T "ALBUMARTIST=%albuminterpret%" -T "COMPOSER=%composer%" %haslyrics%–tag-from-file=LYRICS="%lyricsfile%"%haslyrics% -T "DISCNUMBER=%cdnumber%" -T "TOTALDISCS=%totalcds%" -T "TOTALTRACKS=%numtracks%" %hascover%–picture="%coverfile%"%hascover% %source% -o %dest%


TOC извлечённого CD

Трек | Старт | Длительность | Начальный сектор | Конечный сектор
––––––––––––––––––––––––––––––––––-
1 | 0:00.00 | 4:48.44 | 0 | 21643
2 | 4:48.44 | 3:35.16 | 21644 | 37784
3 | 8:23.60 | 6:53.28 | 37785 | 68787
4 | 15:17.13 | 2:30.55 | 68788 | 80092
5 | 17:47.68 | 4:05.57 | 80093 | 98524
6 | 21:53.50 | 3:27.64 | 98525 | 114113
7 | 25:21.39 | 2:31.48 | 114114 | 125486


Характеристики диапазона извлечения и сообщения об ошибках

Выбранный диапазон

Имя файла C:\Users\Titanium\Desktop\Joe Bonamassa - Rockin' Christmas Blues 2019 27'55''\Joe Bonamassa - Rockin' Christmas Blues.wav

Пиковый уровень 55.7 %
Скорость извлечения 6.3 X
Качество диапазона 100.0 %
CRC теста D70CC1A4
CRC копии D70CC1A4
Копирование… OK

Ошибок не произошло

Конец отчёта

–– CUETools DB Plugin V2.1.6

[CTDB TOCID: qkyL89SLC4QYHmRrOo3COOwWrkk-] disk not present in database
Submit result: qkyL89SLC4QYHmRrOo3COOwWrkk- has been uploaded


==== Контрольная сумма отчёта F4D1E474CAB7CCF11016DFD16E79793384057971A23940832261958383B2CE99 ====


foobar2000 1.3.13 / Dynamic Range Meter 1.1.1
log date: 2019-02-28 15:04:17

––––––––––––––––––––––––––––––––––––––––
Analyzed: Joe Bonamassa / Rockin' Christmas Blues
––––––––––––––––––––––––––––––––––––––––

DR Peak RMS Duration Track
––––––––––––––––––––––––––––––––––––––––
DR9 -0.08 dB -10.44 dB 4:49 01-Merry Christmas, Blues
DR15 -0.81 dB -16.62 dB 3:35 02-Bring Back My Cadillac
DR12 -0.60 dB -13.86 dB 6:53 03-Christmas Boogie ( One Little Kiss)
DR12 -0.21 dB -13.93 dB 2:31 04-Christmas Date Blues
DR12 -0.64 dB -14.62 dB 4:06 05-O Holy Night
DR14 -0.73 dB -15.94 dB 3:28 06-Lonesome Christmas
DR9 -0.35 dB -11.33 dB 2:32 07-Santa Claus Is Back In Town
––––––––––––––––––––––––––––––––––––––––

Number of tracks: 7
Official DR value: DR12

Samplerate: 44100 Hz
Channels: 2
Bits per sample: 16
Bitrate: 944 kbps
Codec: FLAC
================================================================================


AUDIOCHECKER v2.0 beta (build 457) - by Dester - opdester@freemail.hu
~~~~~~~~~~~~~~~~~~~~~~~~~~~~~~~~~~
-=== DO NOT EDIT THIS FILE! ===-

Path: …\src

1 -=- Joe Bonamassa - Rockin' Christmas Blues.flac -=- CDDA (92%)

145446436

Joe Bonamassa - Rockin' Christmas Blues (2016) {J&R}
Joe Bonamassa - Rockin' Christmas Blues (2016) {J&R}


Thanks to the original ripper