Subcategories

Joe Henderson - The Kicker (1967) {OJC 465}

Posted By: tiburon
Joe Henderson - The Kicker (1967) {OJC 465}

Joe Henderson - The Kicker (1967) {OJC 465}
EAC 0.99pb5 | FLAC tracks level 8 | Cue+Log+M3U+MD5 | Full Scans 300dpi | 237MB + 5% Recovery
Genre: Jazz

Joe Henderson's first recording for Milestone was very much a continuation of the adventurous acoustic music he had recorded previously for Blue Note. For those listeners who do not wish to invest in the tenor saxophonist's "complete" eight-CD Milestone box set, this single-CD is a good place to start in investigating his middle period music.
Track List

01. Mamacita 3:20
02. The Kicker 4:04
03. Chelsea Bridge 4:37
04. If 5:34
05. Nardis 4:40
06. Without A Song 5:59
07. O Amor Em Paz 5:32
08. Mo' Joe 4:08

musicians

Joe Henderson - tenor saxophone
Mike Lawrence - trumpet
Grachan Moncur - trombone
Kenny Barron - piano
Ron Carter - bass
Louis Hayes - drums

Produced by Orrin Keepnews


Exact Audio Copy V0.99 prebeta 5 from 4. May 2009

EAC extraction logfile from 16. February 2010, 15:09

Joe Henderson / The Kicker

Used drive : PLEXTOR CD-R PREMIUM2 Adapter: 1 ID: 1

Read mode : Secure
Utilize accurate stream : Yes
Defeat audio cache : Yes
Make use of C2 pointers : No

Read offset correction : 30
Overread into Lead-In and Lead-Out : Yes
Fill up missing offset samples with silence : Yes
Delete leading and trailing silent blocks : No
Null samples used in CRC calculations : Yes
Used interface : Installed external ASPI interface
Gap handling : Appended to previous track

Used output format : User Defined Encoder
Selected bitrate : 32 kBit/s
Quality : High
Add ID3 tag : No
Command line compressor : C:\Programmi\FLAC\flac.exe
Additional command line options : -8 -V -T "ARTIST=%a" -T "TITLE=%t" -T "ALBUM=%g" -T "DATE=%y" -T "TRACKNUMBER=%n" -T "GENRE=%m" -T "COMMENT=EAC FLAC -8" %s


TOC of the extracted CD

Track | Start | Length | Start sector | End sector
––––––––––––––––––––––––––––-
1 | 0:00.00 | 3:24.05 | 0 | 15304
2 | 3:24.05 | 4:09.53 | 15305 | 34032
3 | 7:33.58 | 4:40.17 | 34033 | 55049
4 | 12:14.00 | 5:37.10 | 55050 | 80334
5 | 17:51.10 | 4:44.50 | 80335 | 101684
6 | 22:35.60 | 6:03.55 | 101685 | 128964
7 | 28:39.40 | 5:35.08 | 128965 | 154097
8 | 34:14.48 | 4:09.65 | 154098 | 172837


Track 1

Filename D:\My Rip\01 - Mamacita.wav

Pre-gap length 0:00:02.00

Peak level 87.8 %
Track quality 100.0 %
Test CRC 133F286E
Copy CRC 133F286E
Cannot be verified as accurate (confidence 2) [C8DC11A3], AccurateRip returned [4F7EBA53]
Copy OK

Track 2

Filename D:\My Rip\02 - The Kicker.wav

Pre-gap length 0:00:04.00

Peak level 80.3 %
Track quality 99.9 %
Test CRC F0E87368
Copy CRC F0E87368
Cannot be verified as accurate (confidence 2) [0EAF6727], AccurateRip returned [74AD942C]
Copy OK

Track 3

Filename D:\My Rip\03 - Chelsea Bridge.wav

Pre-gap length 0:00:02.97

Peak level 79.7 %
Track quality 99.9 %
Test CRC 38A8DAC6
Copy CRC 38A8DAC6
Cannot be verified as accurate (confidence 2) [8C005267], AccurateRip returned [2F524D82]
Copy OK

Track 4

Filename D:\My Rip\04 - If.wav

Pre-gap length 0:00:01.93

Peak level 99.9 %
Track quality 100.0 %
Test CRC 6C2336E4
Copy CRC 6C2336E4
Cannot be verified as accurate (confidence 2) [8511C215], AccurateRip returned [0AF68883]
Copy OK

Track 5

Filename D:\My Rip\05 - Nardis.wav

Pre-gap length 0:00:02.80

Peak level 85.1 %
Track quality 100.0 %
Test CRC 3E7C6230
Copy CRC 3E7C6230
Cannot be verified as accurate (confidence 2) [99BF7283], AccurateRip returned [B0AB874F]
Copy OK

Track 6

Filename D:\My Rip\06 - Without A Song.wav

Pre-gap length 0:00:02.09

Peak level 96.5 %
Track quality 100.0 %
Test CRC 8AA955D4
Copy CRC 8AA955D4
Cannot be verified as accurate (confidence 2) [414D94AB], AccurateRip returned [A18E897E]
Copy OK

Track 7

Filename D:\My Rip\07 - O Amor Em Paz.wav

Pre-gap length 0:00:02.13

Peak level 79.9 %
Track quality 100.0 %
Test CRC D5137EAD
Copy CRC D5137EAD
Cannot be verified as accurate (confidence 2) [1DD504BA], AccurateRip returned [5C668D3E]
Copy OK

Track 8

Filename D:\My Rip\08 - Mo' Joe.wav

Pre-gap length 0:00:01.80

Peak level 84.6 %
Track quality 100.0 %
Test CRC 0C8C7854
Copy CRC 0C8C7854
Cannot be verified as accurate (confidence 2) [4A84AD81], AccurateRip returned [614CEB18]
Copy OK


No tracks could be verified as accurate
You may have a different pressing from the one(s) in the database

No errors occurred

End of status report
Joe Henderson - The Kicker (1967) {OJC 465}
Joe Henderson - The Kicker (1967) {OJC 465}




The Files Are Interchangeable

A Rip By Sarchiapone

Visit My Blog