Tags
Language
Tags

Joey Gilmore - The Ghosts of Mississippi Meet the Gods of Africa (2005)

Posted By: Designol
Joey Gilmore - The Ghosts of Mississippi Meet the Gods of Africa (2005)

Joey Gilmore - The Ghosts of Mississippi Meet the Gods of Africa (2005)
EAC | FLAC | Image (Cue&Log) ~ 355 Mb | Mp3 (CBR320) ~ 139 Mb | Scans included
Electric Blues, Soul-Blues | Label: Bluzpik Rekerdz | # BR6100CD | 00:49:55

Joey Gilmore's first release in ten years following his victory as the winner of the International Blues Challenge. A recording career that spans over 35 years from his first single in released in 1969. This release is a Soulful, inspired session of modern electric Blues with Soul. Opening with "Ghosts Of Mississippi", a brilliant piece written by Graham Wood Drout, with Gilmore and band hitting thick and muscular ala Albert King's "Born Under A Born Sign". Gilmore's pinched, slightly raspy voice and tart guitar licks get All Star support from Drout on bass, Cam Robb's skins and icy keyboards courtesy of Bob Abernathy on this cut. Other songs on the disk incorporate the songwriting duo of Gilmore and George Caldwell, his touring bass player backed by Darrell Raines on guitar and Lionel Harrison on Drums. The compositions include four Soul Blues pounders plus the moody, provocative "Things Have Not Changed", chronicling 48 years of racially-motivated crimes beginning with the lynching of Emmet Till up through the Rodney King episode. What makes "Ghosts" special beyond superb playing and strong songs is Jim Nestor's warm, organic production wraping the CD's theme, chronicling the transition of the Blues into the next millinum from the opening note throughout the disk.

Joey Gilmore - The Ghosts of Mississippi Meet the Gods of Africa (2005)



Tracklist:

01. The Ghosts of Mississippi (5:03)
02. All My Love (5:23)
03. Blues All Over You (3:42)
04. Love to See You Smile (5:21)
05. You Put the Rush on Me (5:42)
06. White Shoes (4:58)
07. Steal Away (5:02)
08. The Hawk (4:01)
09. Time to Get Paid (5:49)
10. Things Have Not Changed (4:54)


Exact Audio Copy V0.99 prebeta 4 from 23. January 2008

EAC extraction logfile from 28. April 2010, 20:35

Joey Gilmore / The Ghosts of Mississippi Meet the Gods of Africa

Used drive : HL-DT-STDVD-RAM GH22NP20 Adapter: 0 ID: 0

Read mode : Secure
Utilize accurate stream : Yes
Defeat audio cache : Yes
Make use of C2 pointers : No

Read offset correction : 102
Overread into Lead-In and Lead-Out : No
Fill up missing offset samples with silence : Yes
Delete leading and trailing silent blocks : No
Null samples used in CRC calculations : Yes
Used interface : Installed external ASPI interface

Used output format : User Defined Encoder
Selected bitrate : 1024 kBit/s
Quality : High
Add ID3 tag : No
Command line compressor : C:\Program Files (x86)\Exact Audio Copy\Flac\flac.exe
Additional command line options : -V -8 -T "artist=%a" -T "title=%t" -T "album=%g" -T "date=%y" -T "tracknumber=%n" -T "genre=%m" %s


TOC of the extracted CD

Track | Start | Length | Start sector | End sector
––––––––––––––––––––––––––––-
1 | 0:00.00 | 5:02.53 | 0 | 22702
2 | 5:02.53 | 5:22.54 | 22703 | 46906
3 | 10:25.32 | 3:41.44 | 46907 | 63525
4 | 14:07.01 | 5:21.06 | 63526 | 87606
5 | 19:28.07 | 5:41.44 | 87607 | 113225
6 | 25:09.51 | 4:57.46 | 113226 | 135546
7 | 30:07.22 | 5:02.33 | 135547 | 158229
8 | 35:09.55 | 4:01.26 | 158230 | 176330
9 | 39:11.06 | 5:49.02 | 176331 | 202507
10 | 45:00.08 | 4:54.34 | 202508 | 224591


Range status and errors

Selected range

Filename D:\Rips\Joey Gilmore - The Ghosts of Mississippi Meet the Gods of Africa (2005)\Joey Gilmore - The Ghosts of Mississippi Meet the Gods of Africa.wav

Peak level 100.0 %
Range quality 99.9 %
Test CRC BBBE09DC
Copy CRC BBBE09DC
Copy OK

No errors occurred


AccurateRip summary

Track 1 not present in database
Track 2 not present in database
Track 3 not present in database
Track 4 not present in database
Track 5 not present in database
Track 6 not present in database
Track 7 not present in database
Track 8 not present in database
Track 9 not present in database
Track 10 not present in database

None of the tracks are present in the AccurateRip database

End of status report

[CUETools log; Date: 21.12.2017 23:02:34; Version: 2.1.4]
[CTDB TOCID: eHArpZsm5IpFb0_YYC.rRBjHfsU-] found.
Track | CTDB Status
1 | (1/1) Accurately ripped
2 | (1/1) Accurately ripped
3 | (1/1) Accurately ripped
4 | (1/1) Accurately ripped
5 | (1/1) Accurately ripped
6 | (1/1) Accurately ripped
7 | (1/1) Accurately ripped
8 | (1/1) Accurately ripped
9 | (1/1) Accurately ripped
10 | (1/1) Accurately ripped
[AccurateRip ID: 0012c949-00965f8f-6d0bb20a] found.
Track [ CRC | V2 ] Status
01 [77acf304|3891c71a] (2+0/2) Accurately ripped
02 [bb28bb83|97135d33] (2+0/2) Accurately ripped
03 [15fed9cb|f512ec52] (2+0/2) Accurately ripped
04 [f8b47c95|7be65d92] (2+0/2) Accurately ripped
05 [dc18f39f|9de88691] (2+0/2) Accurately ripped
06 [30a0b4d6|6090c9ec] (2+0/2) Accurately ripped
07 [be51e4ca|3296aebc] (2+0/2) Accurately ripped
08 [21cb6ede|0e577406] (2+0/2) Accurately ripped
09 [fd8be518|0d7274d9] (2+0/2) Accurately ripped
10 [2e5a54f4|1c7bacee] (2+0/2) Accurately ripped

Track Peak [ CRC32 ] [W/O NULL] [ LOG ]
– 100,0 [BBBE09DC] [5EE945FA] CRC32
01 100,0 [AEDD10D6] [2E104E4D]
02 92,2 [99401709] [26FCC610]
03 94,4 [4DA5299B] [42407111]
04 96,6 [24DD20A1] [F67EEFAE]
05 97,7 [DDCF5FD1] [32A985D8]
06 98,8 [12AD0393] [0366C952]
07 98,8 [14858F23] [ECE72737]
08 93,3 [D9321D96] [90498769]
09 94,4 [65A4519A] [441D76FE]
10 97,7 [3DCF2805] [A834C67C]

foobar2000 1.2 / Dynamic Range Meter 1.1.1
log date: 2017-12-21 23:59:17

––––––––––––––––––––––––––––––––––––––––
Analyzed: Joey Gilmore / The Ghosts of Mississippi Meet the Gods of Africa
––––––––––––––––––––––––––––––––––––––––

DR Peak RMS Duration Track
––––––––––––––––––––––––––––––––––––––––
DR10 0.00 dB -11.16 dB 5:03 01-The Ghosts of Mississippi
DR7 -0.70 dB -9.41 dB 5:23 02-All My Love
DR8 -0.50 dB -9.30 dB 3:42 03-Blues All Over You
DR10 -0.30 dB -11.59 dB 5:21 04-Love to See You Smile
DR8 -0.20 dB -9.27 dB 5:42 05-You Put the Rush on Me
DR11 -0.10 dB -11.70 dB 4:58 06-White Shoes
DR8 -0.10 dB -8.49 dB 5:02 07-Steal Away
DR10 -0.60 dB -11.67 dB 4:01 08-The Hawk
DR9 -0.50 dB -11.24 dB 5:49 09-Time to Get Paid
DR11 -0.20 dB -12.97 dB 4:54 10-Things Have Not Changed
––––––––––––––––––––––––––––––––––––––––

Number of tracks: 10
Official DR value: DR9

Samplerate: 44100 Hz
Channels: 2
Bits per sample: 16
Bitrate: 925 kbps
Codec: FLAC
================================================================================

Joey Gilmore - The Ghosts of Mississippi Meet the Gods of Africa (2005)

Joey Gilmore - The Ghosts of Mississippi Meet the Gods of Africa (2005)

All thanks to original releaser - Yarila

More interesting music in My Blog