Tags
Language
Tags

John Coltrane - Soultrane (1958) [DCC, GZS-1046]

Posted By: v3122
John Coltrane - Soultrane (1958) [DCC, GZS-1046]

John Coltrane - Soultrane (1958)
EAC | Flac(Image) + Cue + Log & MP3 CBR 320Kbps
1993 | DCC, GZS-1046 | ~ 200 or 94 Mb | Scans(jpg) -> 36 Mb
Jazz, Post Bop

In addition to being bandmates within Miles Davis' mid-'50s quintet, John Coltrane (tenor sax) and Red Garland (piano) head up a session featuring members from a concurrent version of the Red Garland Trio: Paul Chambers (bass) and Art Taylor (drums). This was the second date to feature the core of this band. A month earlier, several sides were cut that would end up on Coltrane's Lush Life album. Soultrane offers a sampling of performance styles and settings from Coltrane and crew. As with a majority of his Prestige sessions, there is a breakneck-tempo bop cover (in this case an absolute reworking of Irving Berlin's "Russian Lullaby"), a few smoldering ballads (such as "I Want to Talk About You" and "Theme for Ernie"), as well as a mid-tempo romp ("Good Bait"). Each of these sonic textures displays a different facet of not only the musical kinship between Coltrane and Garland but in the relationship that Coltrane has with the music. The bop-heavy solos that inform "Good Bait," as well as the "sheets of sound" technique that was named for the fury in Coltrane's solos on the rendition of "Russian Lullaby" found here, contain the same intensity as the more languid and considerate phrasings displayed particularly well on "I Want to Talk About You." As time will reveal, this sort of manic contrast would become a significant attribute of Coltrane's unpredictable performance style. Not indicative of the quality of this set is the observation that, because of the astounding Coltrane solo works that both precede and follow Soultrane – most notably Lush Life and Blue Train – the album has perhaps not been given the exclusive attention it so deserves.

by Lindsay Planer, allmusic
John Coltrane - Soultrane (1958):

John Coltrane - Soultrane (1958) [DCC, GZS-1046]

Tracklist:

01. Good Bait [12:10]
02. I Want to Talk About You [10:57]
03. You Say You Care [6:18]
04. Theme for Ernie [4:58]
05. Russian Lulaby [5:34]

Exact Audio Copy V0.99 prebeta 5 from 4. May 2009

EAC extraction logfile from 13. June 2012, 23:32

John Coltrane / Soultrane (GZS-1046)

Used drive : ASUS DRW-24B3ST Adapter: 0 ID: 1

Read mode : Secure
Utilize accurate stream : Yes
Defeat audio cache : Yes
Make use of C2 pointers : No

Read offset correction : 6
Overread into Lead-In and Lead-Out : No
Fill up missing offset samples with silence : Yes
Delete leading and trailing silent blocks : No
Null samples used in CRC calculations : Yes
Used interface : Native Win32 interface for Win NT & 2000

Used output format : User Defined Encoder
Selected bitrate : 1024 kBit/s
Quality : High
Add ID3 tag : No
Command line compressor : C:\Program Files (x86)\EAC\WV\wavpack.exe
Additional command line options : -h -hh -m %s %d


TOC of the extracted CD

Track | Start | Length | Start sector | End sector
––––––––––––––––––––––––––––-
1 | 0:00.00 | 12:10.35 | 0 | 54784
2 | 12:10.35 | 10:57.10 | 54785 | 104069
3 | 23:07.45 | 6:18.00 | 104070 | 132419
4 | 29:25.45 | 4:58.05 | 132420 | 154774
5 | 34:23.50 | 5:33.68 | 154775 | 179817


Range status and errors

Selected range

Filename G:\@ MFSL\John Coltrane © 1958- Soultrane (US 1993 DCC 24Kt Gold CD • GZS-1046)\John Coltrane - Soultrane (GZS-1046).wav

Peak level 100.0 %
Range quality 100.0 %
Test CRC 77171940
Copy CRC 77171940
Copy OK

No errors occurred


AccurateRip summary

Track 1 accurately ripped (confidence 15) [BCA4FE05]
Track 2 accurately ripped (confidence 15) [9E73C825]
Track 3 accurately ripped (confidence 14) [2FF1F4B4]
Track 4 accurately ripped (confidence 16) [3698386A]
Track 5 accurately ripped (confidence 14) [9F4C7947]

All tracks accurately ripped

End of status report

foobar2000 1.2.9 / Dynamic Range Meter 1.1.1
log date: 2016-12-05 00:19:19

––––––––––––––––––––––––––––––––––––––––
Analyzed: John Coltrane / Soultrane (GZS-1046)
––––––––––––––––––––––––––––––––––––––––

DR Peak RMS Duration Track
––––––––––––––––––––––––––––––––––––––––
DR12 0.00 dB -13.43 dB 12:10 01-Good Bait
DR12 0.00 dB -14.10 dB 10:57 02-I Want to Talk About You
DR11 0.00 dB -13.57 dB 6:18 03-You Say You Care
DR12 -0.01 dB -14.69 dB 4:58 04-Theme for Ernie
DR11 0.00 dB -12.95 dB 5:34 05-Russian Lulaby
––––––––––––––––––––––––––––––––––––––––

Number of tracks: 5
Official DR value: DR12

Samplerate: 44100 Hz
Channels: 2
Bits per sample: 16
Bitrate: 679 kbps
Codec: FLAC

[CUETools log; Date: 05.12.2016 0:19:09; Version: 2.1.4]
[CTDB TOCID: VHJ7hKH8McmD1S8iYvPFm024fXo-] found.
Track | CTDB Status
1 | (8/8) Accurately ripped
2 | (8/8) Accurately ripped
3 | (8/8) Accurately ripped
4 | (8/8) Accurately ripped
5 | (8/8) Accurately ripped
[AccurateRip ID: 00098ccc-002aca14-45095d05] found.
Track [ CRC | V2 ] Status
01 [bca4fe05|ecb38f40] (16+15/31) Accurately ripped
02 [9e73c825|c9e5d642] (16+15/31) Accurately ripped
03 [2ff1f4b4|e8afcbe6] (15+15/30) Accurately ripped
04 [3698386a|d417c72e] (17+15/32) Accurately ripped
05 [9f4c7947|5a1dad44] (15+15/30) Accurately ripped

Track Peak [ CRC32 ] [W/O NULL] [ LOG ]
– 100,0 [77171940] [8DFA3A70] CRC32
01 100,0 [7702FC40] [26A5BF66]
02 100,0 [9EBFA961] [2C4B7CC2]
03 100,0 [6465F675] [37CD20C1]
04 99,8 [B019438C] [575422FD]
05 100,0 [9FCB2E1F] [ED614DB2]


John Coltrane - Soultrane (1958) [DCC, GZS-1046]

All thanks go to the original releaser

John Coltrane in my Blog

Download John Coltrane - Soultrane (1958):