Subcategories

John Hammond - Long As I Have You (1998)

Posted By: Designol
John Hammond - Long As I Have You (1998)

John Hammond - Long As I Have You (1998)
EAC | FLAC | Image (Cue&Log) ~ 296 Mb | Mp3 (CBR320) ~ 108 Mb | Scans ~ 194 Mb
Blues | Label: Virgin America/Pointblank | # 7243 8 45514 2 1, VPBCD 44 | 00:47:08

John Hammond's latest album marks a major departure in one respect – for the first time in anyone's memory, he sings, but plays nothing on one of his records, while Little Charlie & the Nightcats, led by guitarist Charlie Baty, handle the guitars and everything else. The difference is very subtle, the playing maybe a little less flashy than Hammond's already restrained work – think of how good Muddy Waters sounded on the early-'60s records where he sang and didn't play. And that comparison is an apt one – even more than 35 years after he started, Hammond inevitably ends up sounding like its 1961 and he's working at Chess studios in Chicago, cutting songs between Muddy Waters sessions. Harpist Rick Estrin also contributes a smooth and eminently enjoyable original amid a brace of covers of blues standards. There is not a weak number here, and this band is a kick to listen to, sounding more naturally authentic than anybody in the 1990's has a right to (Baty's quiet pyrotechnics on "Lookin' for Trouble" would make this record worth owning, even if Hammond's singing and the rest of the songs weren't as good as they are). And the songs include numbers by Howlin' Wolf, Eddie Taylor, Little Walter, Rice Miller, Sonny Boy Williamson, and Willie Dixon. And as a bonus, we get Hammond playing and singing on three unplugged acoustic tracks, accompanied by a washboard, where he shows off his still-formidable country blues sound, whetting the appetite for more like this.

Review by Bruce Eder, Allmusic.com

John Hammond - Long As I Have You (1998)



Tracklist:

01. Don't Start Me Talkin' (02:59)
02. As Long As I Have You (03:16)
03. I Feel So Sorry (02:53)
04. Stranded (02:55)
05. Lookin' For Trouble (03:03)
06. I Got Lucky (02:57)
07. Sad To Be Alone (03:20)
08. Goin' Away Baby (02:35)
09. So Many Roads, So Many Trains (03:05)
10. I'm Gonna Find My Baby (03:49)
11. Crying At Daylight (03:10)
12. Everything's Gonna Be Alright (03:12)
13. Untrue Blues (02:19)
14. Tell Me Mama (03:12)
15. Homeless Blues (04:16)


Exact Audio Copy V1.0 beta 6 from 9. April 2015

EAC extraction logfile from 31. October 2016, 3:43

John Hammond / Long As I Have You

Used drive : ASUS SDRW-08D2S-U Adapter: 3 ID: 0

Read mode : Secure
Utilize accurate stream : Yes
Defeat audio cache : Yes
Make use of C2 pointers : No

Read offset correction : 6
Overread into Lead-In and Lead-Out : No
Fill up missing offset samples with silence : Yes
Delete leading and trailing silent blocks : No
Null samples used in CRC calculations : Yes
Used interface : Installed external ASPI interface

Used output format : User Defined Encoder
Selected bitrate : 320 kBit/s
Quality : High
Add ID3 tag : No
Command line compressor : C:\Program Files\Exact Audio Copy 1.0 b6\Exact Audio Copy\Flac\flac.exe
Additional command line options : -V -8 -T "Date=%year%" -T "Genre=%genre%" %source%


TOC of the extracted CD

Track | Start | Length | Start sector | End sector
––––––––––––––––––––––––––––-
1 | 0:00.00 | 2:59.12 | 0 | 13436
2 | 2:59.12 | 3:16.73 | 13437 | 28209
3 | 6:16.10 | 2:53.60 | 28210 | 41244
4 | 9:09.70 | 2:55.55 | 41245 | 54424
5 | 12:05.50 | 3:03.42 | 54425 | 68191
6 | 15:09.17 | 2:57.33 | 68192 | 81499
7 | 18:06.50 | 3:20.57 | 81500 | 96556
8 | 21:27.32 | 2:35.33 | 96557 | 108214
9 | 24:02.65 | 3:05.10 | 108215 | 122099
10 | 27:08.00 | 3:49.62 | 122100 | 139336
11 | 30:57.62 | 3:10.05 | 139337 | 153591
12 | 34:07.67 | 3:12.08 | 153592 | 167999
13 | 37:20.00 | 2:19.30 | 168000 | 178454
14 | 39:39.30 | 3:12.65 | 178455 | 192919
15 | 42:52.20 | 4:16.47 | 192920 | 212166


Range status and errors

Selected range

Filename L:\Lossless Temp\John Hammond\1998. John Hammond - Long As I Have You (1998 Virgin Records America, VPBCD 44, USA)\John Hammond - Long As I Have You.wav

Peak level 100.0 %
Extraction speed 4.2 X
Range quality 100.0 %
Test CRC 18551DDE
Copy CRC 18551DDE
Copy OK

No errors occurred


AccurateRip summary

Track 1 accurately ripped (confidence 6) [1AEFAF43] (AR v2)
Track 2 accurately ripped (confidence 6) [7574EFCC] (AR v2)
Track 3 accurately ripped (confidence 6) [ABC2E042] (AR v2)
Track 4 accurately ripped (confidence 6) [417197B9] (AR v2)
Track 5 accurately ripped (confidence 6) [04683BF1] (AR v2)
Track 6 accurately ripped (confidence 6) [333F7EE9] (AR v2)
Track 7 accurately ripped (confidence 6) [B174B917] (AR v2)
Track 8 accurately ripped (confidence 6) [C68ECA9A] (AR v2)
Track 9 accurately ripped (confidence 6) [7A43A51A] (AR v2)
Track 10 accurately ripped (confidence 6) [85D6F01F] (AR v2)
Track 11 accurately ripped (confidence 6) [C81C0AD8] (AR v2)
Track 12 accurately ripped (confidence 6) [0D3F15F1] (AR v2)
Track 13 accurately ripped (confidence 6) [C3BA5049] (AR v2)
Track 14 accurately ripped (confidence 6) [2EBF52DA] (AR v2)
Track 15 accurately ripped (confidence 6) [94E802D1] (AR v2)

All tracks accurately ripped

End of status report

==== Log checksum 4D53F5DA4D002B0049F9A143B19AD4D5D512843D94EAF305FFE5304D257ED924 ====

foobar2000 1.2 / Dynamic Range Meter 1.1.1
log date: 2016-12-09 15:39:40

––––––––––––––––––––––––––––––––––––––––
Analyzed: John Hammond / Long As I Have You
––––––––––––––––––––––––––––––––––––––––

DR Peak RMS Duration Track
––––––––––––––––––––––––––––––––––––––––
DR9 0.00 dB -10.18 dB 2:59 01-Don't Start Me Talkin'
DR9 -0.20 dB -10.40 dB 3:17 02-As Long As I Have You
DR8 -0.28 dB -9.65 dB 2:54 03-I Feel So Sorry
DR9 -0.10 dB -9.91 dB 2:56 04-Stranded
DR9 -0.08 dB -10.35 dB 3:04 05-Lookin' For Trouble
DR9 0.00 dB -10.51 dB 2:57 06-I Got Lucky
DR9 -0.03 dB -10.41 dB 3:21 07-Sad To Be Alone
DR9 -0.60 dB -11.67 dB 2:35 08-Goin' Away Baby
DR8 -0.06 dB -9.94 dB 3:05 09-So Many Roads, So Many Trains
DR9 0.00 dB -9.42 dB 3:50 10-I'm Gonna Find My Baby
DR8 -0.02 dB -10.07 dB 3:10 11-Crying At Daylight
DR9 -0.03 dB -9.98 dB 3:12 12-Everything's Gonna Be Alright
DR11 -0.44 dB -14.22 dB 2:19 13-Untrue Blues
DR10 -0.42 dB -12.13 dB 3:13 14-Tell Me Mama
DR10 -0.45 dB -13.42 dB 4:17 15-Homeless Blues
––––––––––––––––––––––––––––––––––––––––

Number of tracks: 15
Official DR value: DR9

Samplerate: 44100 Hz
Channels: 2
Bits per sample: 16
Bitrate: 879 kbps
Codec: FLAC
================================================================================

John Hammond - Long As I Have You (1998)

John Hammond - Long As I Have You (1998)