Subcategories
Tags
Language
Tags

John Mooney - Comin' Your Way (1979)

Posted By: Designol
John Mooney - Comin' Your Way (1979)

John Mooney - Comin' Your Way (1979)
EAC | FLAC | Image (Cue&Log) ~ 202 Mb | Mp3 (CBR320) ~ 88 Mb | Scans ~ 50 Mb
Blues, Delta Blues | Label: Blind Pig | # BP70779 | Time: 00:38:39

John Mooney is a slide guitarist, working primarily in a traditionalist Delta acoustic style. Originally hailing from Rochester, NY, Mooney learned his craft first hand from country blues legend Son House. Later in his career, he moved to New Orleans, switched to electric guitar and began enlivening his music with Second Line rhythms indigenous to the area. In 1976, Mooney relocated to New Orleans and within a year of his arrival, he landed a contract with Blind Pig. In 1979, he released his debut album, Comin' Your Way.

In the world of blues critics, guitarist, singer, and songwriter John Mooney has long been a favorite. That's because he takes all he learned from classic Delta bluesmen like Son House and others and modernizes their stylings while adding his own unique stamp to classic Delta blues tunes. Even his original songs, often autobiographical, are steeped in the classic blues tradition. Mooney divides his time between residences in Florida and New Orleans, and usually works with a simple guitar-bass-drums trio known as Bluesiana. His vocals are powerful and inspired, and his guitar playing is often loud and electric, but so steeped in the style of House and others classic Delta bluesman, that he transcends generations in the blues idiom.

Growing up in Rochester, New York, Mooney took to the guitar as a ten-year-old and quickly became obsessed with the instrument, initially learning to play tunes by the Beatles and Rolling Stones. When he was 11, a neighbor who worked at WHAM, a Rochester radio station, gave Mooney some recordings by Scrapper Blackwell and Robert Johnson. These recordings turned his head and life around and he soon discovered other great bluesmen, including Muddy Waters, Freddie King, Albert King, and B.B. King. Collecting, repairing, and playing National Steel resophonic guitars became his obsession. He began his professional performing career at 13, at first playing many shows with Rochester area blues guitarist Joe Beard. By his mid-teens, Mooney had worked out a few Son House tunes on his guitar, using his slide. House had moved to Rochester to "retire," but one day Beard suggested that he get Mooney over to House's residence. "Joe said to me, ‘You play so much Son House, you really ought to meet him,' so he introduced us. I was 16 at the time. Son and I would get together at his house. At his house, you couldn't play blues; we'd have to go outside or do a gig in a club somewhere. Even if his wife wasn't there, he still wouldn't play blues in the house."

Mooney left Rochester in 1973 and hitch-hiked his way across the country or hopped freight trains to get to California, Arizona, and Texas. He finally settled in New Orleans in 1976 and a year later, by the spring of 1977, he was playing the New Orleans Jazz and Heritage Festival, which was then getting off the ground. Blind Pig released Mooney's debut album, Comin' Your Way in February, 1979, and he's been actively recording ever since. His other releases include Late Last Night for Bullseye/Rounder in 1980, Telephone Blues in 1984 for Powerhouse Records, and Telephone King in 1991 for the same label, run by D.C.-area blues-rock guitarist Tom Principato. His other albums include Testimony (1992, Domino), Sideways in Paradise (with Jimmy Thackery, Blind Pig, 1993); Travelin' On (1995, CrossCut); Dealing with the Devil (1995, Ruf Records) Against the Wall (1996, House of Blues); Gone to Hell (2000, Blind Pig); All I Want (2002, Blind Pig) and Big Ol' Fiya (2006, Live Music Lives). Mooney continues to tour the U.S., Europe, Japan, and Australia. Anyone who's seen him can tell you how powerful his trio concerts are.

Richard Skelly, Allmusic.com

John Mooney at Allmusic
John Mooney at Wiki

Tracklist:

01. Brand New Women (4:13)
02. Shake Hands And Tell Me Goodbye (3:12)
03. Ain't Gonna Get Drunk No More (2:49)
04. I'm Mad (2:52)
05. Train Is Leavin' (3:45)
06. Pony Blues (3:10)
07. Take A Walk Round The Corner (3:50)
08. Dirty Rat (1:58)
09. Move To Louisiana (2:30)
10. Shout Sister Shout (1:38)
11. Hot Tub Mambo (2:25)
12. Reap What You Sow (3:29)
13. Stop That Thing (2:48)


Exact Audio Copy V1.0 beta 6 from 9. April 2015

EAC extraction logfile from 1. February 2018, 18:16

John Mooney / Comin' Your Way

Used drive : PLEXTOR DVDR PX-891SA Adapter: 0 ID: 2

Read mode : Secure
Utilize accurate stream : Yes
Defeat audio cache : Yes
Make use of C2 pointers : No

Read offset correction : 6
Overread into Lead-In and Lead-Out : No
Fill up missing offset samples with silence : Yes
Delete leading and trailing silent blocks : No
Null samples used in CRC calculations : Yes
Used interface : Installed external ASPI interface

Used output format : User Defined Encoder
Selected bitrate : 320 kBit/s
Quality : High
Add ID3 tag : No
Command line compressor : C:\Program Files\Exact Audio Copy 1.b6\Exact Audio Copy\Flac\flac.exe
Additional command line options : -V -8 -T "Genre=%genre%" -T "Artist=%artist%" -T "Title=%title%" -T "Album=%albumtitle%" -T "Date=%year%" -T "Tracknumber=%tracknr%" -T "Comment=%comment%" %source%


TOC of the extracted CD

Track | Start | Length | Start sector | End sector
––––––––––––––––––––––––––––-
1 | 0:00.50 | 4:12.57 | 50 | 19006
2 | 4:13.32 | 3:11.55 | 19007 | 33386
3 | 7:25.12 | 2:48.55 | 33387 | 46041
4 | 10:13.67 | 2:52.28 | 46042 | 58969
5 | 13:06.20 | 3:45.27 | 58970 | 75871
6 | 16:51.47 | 3:10.08 | 75872 | 90129
7 | 20:01.55 | 3:49.55 | 90130 | 107359
8 | 23:51.35 | 1:58.37 | 107360 | 116246
9 | 25:49.72 | 2:29.53 | 116247 | 127474
10 | 28:19.50 | 1:37.50 | 127475 | 134799
11 | 29:57.25 | 2:24.55 | 134800 | 145654
12 | 32:22.05 | 3:29.30 | 145655 | 161359
13 | 35:51.35 | 2:48.37 | 161360 | 173996


Range status and errors

Selected range

Filename L:\Audio\SWF\CD\John Mooney\1979. John Mooney - Comin' Your Way (2002 Blind Pig Records, BP 70779, USA)\John Mooney - Comin' Your Way.wav

Peak level 100.0 %
Extraction speed 2.8 X
Range quality 100.0 %
Test CRC AB1FF1B4
Copy CRC AB1FF1B4
Copy OK

No errors occurred


AccurateRip summary

Track 1 cannot be verified as accurate (confidence 5) [CCD24BDA], AccurateRip returned [908D6263] (AR v2)
Track 2 cannot be verified as accurate (confidence 5) [6C8A1D79], AccurateRip returned [4BA7241F] (AR v2)
Track 3 cannot be verified as accurate (confidence 5) [9D2DA9E4], AccurateRip returned [8D5EE1AC] (AR v2)
Track 4 cannot be verified as accurate (confidence 5) [E6F7069A], AccurateRip returned [B386C2E3] (AR v2)
Track 5 cannot be verified as accurate (confidence 5) [6FD909A4], AccurateRip returned [B55FB4D3] (AR v2)
Track 6 cannot be verified as accurate (confidence 5) [85B342A2], AccurateRip returned [6F02F78D] (AR v2)
Track 7 cannot be verified as accurate (confidence 5) [33F6FE97], AccurateRip returned [940CA46A] (AR v2)
Track 8 cannot be verified as accurate (confidence 5) [0B1171BD], AccurateRip returned [3FD0E6D6] (AR v2)
Track 9 cannot be verified as accurate (confidence 5) [87563897], AccurateRip returned [127FDECC] (AR v2)
Track 10 cannot be verified as accurate (confidence 5) [1E6450C2], AccurateRip returned [6E4497B9] (AR v2)
Track 11 cannot be verified as accurate (confidence 5) [D36D6729], AccurateRip returned [46B966F8] (AR v2)
Track 12 cannot be verified as accurate (confidence 5) [6A6E72A1], AccurateRip returned [EA0CE80F] (AR v2)
Track 13 cannot be verified as accurate (confidence 5) [C09FDDBB], AccurateRip returned [4AFDD56B] (AR v2)

No tracks could be verified as accurate
You may have a different pressing from the one(s) in the database

End of status report

–– CUETools DB Plugin V2.1.6

[CTDB TOCID: TR4B8inQY8aSSTLF4CpYdLhKn8Y-] found
Submit result: TR4B8inQY8aSSTLF4CpYdLhKn8Y- has been confirmed
Track | CTDB Status
1 | (1/1) Accurately ripped
2 | (1/1) Accurately ripped
3 | (1/1) Accurately ripped
4 | (1/1) Accurately ripped
5 | (1/1) Accurately ripped
6 | (1/1) Accurately ripped
7 | (1/1) Accurately ripped
8 | (1/1) Accurately ripped
9 | (1/1) Accurately ripped
10 | (1/1) Accurately ripped
11 | (1/1) Accurately ripped
12 | (1/1) Accurately ripped
13 | (1/1) Accurately ripped


==== Log checksum 3E4AF3E63CED0769879A94470C1F2E56E706079FA1D7D2521D47004BBD1FFF08 ====

foobar2000 1.2 / Dynamic Range Meter 1.1.1
log date: 2018-02-02 01:45:34

––––––––––––––––––––––––––––––––––––––––
Analyzed: John Mooney / Comin' Your Way
––––––––––––––––––––––––––––––––––––––––

DR Peak RMS Duration Track
––––––––––––––––––––––––––––––––––––––––
DR14 0.00 dB -16.99 dB 4:13 01-Brand New Women
DR13 -0.10 dB -16.31 dB 3:12 02-Shake Hands And Tell Me Goodbye
DR14 -0.15 dB -17.34 dB 2:49 03-Ain't Gonna Get Drunk No More
DR13 -0.10 dB -16.83 dB 2:52 04-I'm Mad
DR11 -0.60 dB -14.17 dB 3:45 05-Train Is Leavin'
DR14 -1.50 dB -17.71 dB 3:10 06-Pony Blues
DR13 -0.10 dB -16.60 dB 3:50 07-Take A Walk Round The Corner
DR14 -0.10 dB -17.32 dB 1:58 08-Dirty Rat
DR11 -1.00 dB -15.84 dB 2:30 09-Move To Louisiana
DR13 -0.22 dB -16.30 dB 1:38 10-Shout Sister Shout
DR11 -1.10 dB -14.67 dB 2:25 11-Hot Tub Mambo
DR14 -0.70 dB -18.14 dB 3:29 12-Reap What You Sow
DR12 -0.10 dB -15.88 dB 2:48 13-Stop That Thing
––––––––––––––––––––––––––––––––––––––––

Number of tracks: 13
Official DR value: DR13

Samplerate: 44100 Hz
Channels: 2
Bits per sample: 16
Bitrate: 730 kbps
Codec: FLAC
================================================================================

John Mooney - Comin' Your Way (1979)

John Mooney - Comin' Your Way (1979)

All thanks to original releaser - Swamp Fox

More interesting music in My Blog