Tags
Language
Tags

John Scofield - The Best Of John Scofield: The Blue Note Years (1996) [Re-Up]

Posted By:
John Scofield - The Best Of John Scofield: The Blue Note Years (1996) [Re-Up]

John Scofield - The Best Of John Scofield: The Blue Note Years (1996)
EAC | FLAC | Tracks (Cue&Log) ~ 414 Mb | Mp3 (CBR320) ~ 147 Mb | Scans included | 01:03:00
Contemporary Jazz, Post-Bop, Guitar Jazz | Label: Blue Note | # CDP 7243 8 53330 2 6

Many highlights of Scofield's work from his late 1980s-early 1990s tenure on Blue Note are included in this collection, which features cameos from Pat Metheny, Joe Lovano, Randy Brecker, and Bill Frisell among many other all stars. Also included is material from Hand Jive, Scofield's collaboration with Eddie Harris, and an unreleased take on Wayne Shorter's "Tom Thumb".

Review by Jason Ankeny, Allmusic.com

John Scofield - The Best Of John Scofield: The Blue Note Years (1996) [Re-Up]



John Scofield, Pat Metheny, Bill Frisell (guitars)
Joe Lovano, Eddie Harris (tenor saxophone)
Howard Johnson (tuba)
Randy Brecker (trumpet)
Charlie Haden, Dennis Irwin, Marc Johnson (bass)
Don Alias (percussion)
Joey Baron, Jack DeJohnette, Idris Muhammad, Bill Stewart (drums)

Tracklist:

01. So Sue Me (6:00)
02. Flower Power (4:59)
03. Big Fan (6:06)
04. Camp Out (8:03)
05. Call 911 (7:30)
06. You Bet (5:37)
07. Message To My Friend (6:10)
08. Tom Thumb (Take Two) (5:36)
09. Do Like Eddie (8:10)
10. Kool (4:49)


EAC extraction logfile from 13. November 2009, 10:30 for CD
John Scofield / The Best Of John Scofield

Used drive : LITE-ON CD-RW SOHR-5238S Adapter: 1 ID: 0
Read mode : Secure with NO C2, accurate stream, disable cache
Read offset correction : 6
Overread into Lead-In and Lead-Out : No

Used output format : C:\Program Files\MediaCoder\codecs\flac.exe (User Defined Encoder)
192 kBit/s
Additional command line options : ?8 ?V ?T "ARTIST=%a" ?T "TITLE=%t" ?T "ALBUM=%g" ?T "DATE=%y" ?T "TRACKNUMBER=%n" ?T "GENRE=%m" ?T "COMMENT=EAC FLAC ?8" %s

Other options :
Fill up missing offset samples with silence : Yes
Delete leading and trailing silent blocks : No
Installed external ASPI interface


Track 1
Filename F:\The Best Of John Scofield - The Blue Note Years - 1996[lossless]\01 - So Sue Me .wav

Pre-gap length 0:00:02.00

Peak level 98.8 %
Track quality 100.0 %
Test CRC 90818A12
Copy CRC 90818A12
Copy OK

Track 2
Filename F:\The Best Of John Scofield - The Blue Note Years - 1996[lossless]\02 - Flower Power .wav

Pre-gap length 0:00:01.24

Peak level 98.8 %
Track quality 100.0 %
Test CRC DBD91090
Copy CRC DBD91090
Copy OK

Track 3
Filename F:\The Best Of John Scofield - The Blue Note Years - 1996[lossless]\03 - Big Fan .wav

Pre-gap length 0:00:01.57

Peak level 98.8 %
Track quality 100.0 %
Test CRC 4F228F67
Copy CRC 4F228F67
Copy OK

Track 4
Filename F:\The Best Of John Scofield - The Blue Note Years - 1996[lossless]\04 - Camp Out .wav

Pre-gap length 0:00:01.82

Peak level 98.8 %
Track quality 100.0 %
Test CRC CC203E91
Copy CRC CC203E91
Copy OK

Track 5
Filename F:\The Best Of John Scofield - The Blue Note Years - 1996[lossless]\05 - Call 911 .wav

Pre-gap length 0:00:02.00

Peak level 98.8 %
Track quality 100.0 %
Test CRC D40876E6
Copy CRC D40876E6
Copy OK

Track 6
Filename F:\The Best Of John Scofield - The Blue Note Years - 1996[lossless]\06 - You Bet .wav

Pre-gap length 0:00:01.80

Peak level 98.8 %
Track quality 100.0 %
Test CRC 12D41235
Copy CRC 12D41235
Copy OK

Track 7
Filename F:\The Best Of John Scofield - The Blue Note Years - 1996[lossless]\07 - Message To My Friend .wav

Pre-gap length 0:00:01.64

Peak level 98.8 %
Track quality 100.0 %
Test CRC 5B947310
Copy CRC 5B947310
Copy OK

Track 8
Filename F:\The Best Of John Scofield - The Blue Note Years - 1996[lossless]\08 - Tom Thumb (Take Two) .wav

Pre-gap length 0:00:02.22

Peak level 98.8 %
Track quality 100.0 %
Test CRC 30C10F93
Copy CRC 30C10F93
Copy OK

Track 9
Filename F:\The Best Of John Scofield - The Blue Note Years - 1996[lossless]\09 - Do Like Eddie .wav

Pre-gap length 0:00:03.00

Peak level 98.8 %
Track quality 100.0 %
Test CRC CD350962
Copy CRC CD350962
Copy OK

Track 10
Filename F:\The Best Of John Scofield - The Blue Note Years - 1996[lossless]\10 - Kool .wav

Pre-gap length 0:00:02.20

Peak level 98.8 %
Track quality 100.0 %
Test CRC 4C680161
Copy CRC 4C680161
Copy OK

No errors occured


End of status report

[CUETools log; Date: 25.06.2017 15:49:36; Version: 2.1.4]
[CTDB TOCID: C9zSTrkWdTEbD3toL4seIlCdyTs-] found.
Track | CTDB Status
1 | (20/22) Accurately ripped
2 | (22/22) Accurately ripped
3 | (22/22) Accurately ripped
4 | (22/22) Accurately ripped
5 | (22/22) Accurately ripped
6 | (22/22) Accurately ripped
7 | (22/22) Accurately ripped
8 | (22/22) Accurately ripped
9 | (22/22) Accurately ripped
10 | (21/22) Accurately ripped
[AccurateRip ID: 0017bd2d-00bf1528-7b0ec30a] found.
Track [ CRC | V2 ] Status
01 [3a709121|21e75760] (03+05/12) Accurately ripped
02 [5a3f0fb5|2625ffc5] (03+06/13) Accurately ripped
03 [ff5b15b1|e4187692] (03+06/13) Accurately ripped
04 [5ba4ea54|ed107b92] (03+06/13) Accurately ripped
05 [2ee4791d|8fe84b23] (03+06/14) Accurately ripped
06 [daa23b23|e519a121] (03+06/14) Accurately ripped
07 [4e82d0e7|a9f1c9ae] (03+06/14) Accurately ripped
08 [715daba5|c2b35bde] (03+06/14) Accurately ripped
09 [b23e4c9a|1e33fd25] (03+06/14) Accurately ripped
10 [788d87d3|4eb469b6] (02+05/12) Accurately ripped
Offsetted by -394:
01 [6c4d9499] (02/12) Accurately ripped
02 [3f987411] (02/13) Accurately ripped
03 [f3d42c81] (02/13) Accurately ripped
04 [2f81412a] (02/13) Accurately ripped
05 [df00ed71] (02/14) Accurately ripped
06 [7e873e61] (02/14) Accurately ripped
07 [f9033e1d] (02/14) Accurately ripped
08 [8f8c5c79] (02/14) Accurately ripped
09 [729599fc] (02/14) Accurately ripped
10 [0a8e2daf] (02/12) Accurately ripped

Track Peak [ CRC32 ] [W/O NULL] [ LOG ]
– 98,8 [3652E725] [F53B7463]
01 98,8 [90818A12] [0DA816B9] CRC32
02 98,8 [DBD91090] [A4AF9491] CRC32
03 98,8 [4F228F67] [ADDEDAA4] CRC32
04 98,8 [CC203E91] [25F9A450] CRC32
05 98,8 [D40876E6] [14D7C5D8] CRC32
06 98,8 [12D41235] [98C966F3] CRC32
07 98,8 [5B947310] [287A4959] CRC32
08 98,8 [30C10F93] [CA72C050] CRC32
09 98,8 [CD350962] [AA77E727] CRC32
10 98,8 [4C680161] [9F41C0C3] CRC32

foobar2000 1.2 / Dynamic Range Meter 1.1.1
log date: 2017-06-25 17:26:35

––––––––––––––––––––––––––––––––––––––––
Analyzed: John Scofield / The Best Of John Scofield
––––––––––––––––––––––––––––––––––––––––

DR Peak RMS Duration Track
––––––––––––––––––––––––––––––––––––––––
DR10 -0.10 dB -11.80 dB 6:00 01-So Sue Me
DR11 -0.10 dB -13.64 dB 4:59 02-Flower Power
DR10 -0.10 dB -12.20 dB 6:06 03-Big Fan
DR9 -0.10 dB -11.62 dB 8:03 04-Camp Out
DR9 -0.10 dB -11.84 dB 7:30 05-Call 911
DR11 -0.10 dB -13.47 dB 5:37 06-You Bet
DR13 -0.10 dB -16.77 dB 6:10 07-Message To My Friend
DR10 -0.10 dB -12.28 dB 5:36 08-Tom Thumb (Take Two)
DR9 -0.10 dB -11.57 dB 8:10 09-Do Like Eddie
DR10 -0.10 dB -11.52 dB 4:49 10-Kool
––––––––––––––––––––––––––––––––––––––––

Number of tracks: 10
Official DR value: DR10

Samplerate: 44100 Hz
Channels: 2
Bits per sample: 16
Bitrate: 891 kbps
Codec: FLAC
================================================================================

John Scofield - The Best Of John Scofield: The Blue Note Years (1996) [Re-Up]

John Scofield - The Best Of John Scofield: The Blue Note Years (1996) [Re-Up]