Tags
Language
Tags

John Eliot Gardiner, English Baroque Soloists - Purcell Collection [8CD] (1994)

Posted By: ArlegZ
John Eliot Gardiner, English Baroque Soloists - Purcell Collection [8CD] (1994)

John Eliot Gardiner, English Baroque Soloists - Purcell Collection [8CD] (1994)
EAC | FLAC | Image (Cue & Log) ~ 1.88 Gb | Total time: 06:59:14 | Scans included
Classical | Label: Erato ‎| 4509-96371-2 | Recorded: 1976-1987

This eight-disc set includes odes and theater pieces; and Gardiner's performances are more than excellent. He synthesizes the spare delicacy and ceremonial grandeur of Purcell's music in performances that are very satisfying.

Performer:
Monteverdi Choir
English Baroque Soloists
John Eliot Gardiner, conductor

Contents:
CD1: The Indian Queen
CD2-3: King Arthur
CD4: Music for Queen Mary
CD5: Hail! Bright Cecilia
CD6: The Tempest
CD7-8: Timon of Athens. Dioclesian


CD1: The Indian Queen
First Music
01. First Air
02. Second Air
Second Music
03. First Hornpipe
04. Second Hornpipe
Overture
05. Adagio
06. Allegro
07. Trumpet Tune
Prologue
08. Air: Wake, Quivera (Boy)
09. Air: Why Should Men Quarrel (Girl)
10. Recitative, Air & Duo: By Ancient Prophecies (Boy, Girt)
11. Trumpet Tune (Reprise)
Act 2
Symphony
12. Canzona
13. Adagio
14. Allegro
15. Prelude, Air & Chorus: I Come To Sing Great Zempoalla's Story (Fame)
16. Air: What Flattering Noise Is This (Envy & 2 Followers)
17. Air: Scorn'd Envy, Here's Nothing (Fame)
18. Air: I Fly From The Place (Envy)
19. Air: Begone, Curst Fiends Of (Hell Fame)
20. Prelude, Air & Chorus: I Come To Sing (Fame)
Act 3
21. Air
22. Minuet
23. Recitative & Air: Ye Twice Ten Hundred Deities (Ismeron)
24. Symphony For Hautboys
25. Air; Seek Not To Know (God Of Dreams)
26. Trumpet Overture (Canzona - Slow)
27. Duo: Ah, How Happy Are We! (First & Second Aerial Spirits)
28. Duo & Chorus: We The Spirits Of The Air (Third & Fourth Aerial Spirits)
29. Air: I Attempt From Love's Sickness (Soprano)
30. Air: Duo & Chorus (Reprise)
31. Third Act Tune
Act 4
32. Song: They Tell Us That Your Mighty Powers (Orazia) - Fourth Act Tune
Act 5
33. Chorus & Recitative: While Thus We Bow (High Priest)

Girl/Third Aerial Spirit - Rosemary Hardy, Soprano
Boy/Second Follower/God of Dreams/Second Aerial Spirit - Martyn Hill, Tenor
Fame/First Aerial Spirit - John Elwes, Tenor
First Follower - Ashley Stafford, Countertenor
Envy/High Priest - David Thomas, Bass-Baritone
Ismeron - Stephen Varcoe, Baritone
Fourth Aerial Spirit - Gillian Fisher, Soprano; Dinah Harris, Soprano (Track 29); Jennifer Smith, Soprano (Track 32)


CD2: King Arthur (1)
01. Overture
02. Air
03. Overture
Act 1
04. Woden, First To Thee - The White Horse Neigh'd Aloud - To Woden, Our Defender (Stephen Varcoe, Paul Elliott Ashley Stafford, Chorus)
05. The Lot Is Cast (Gillian Fisher)
06. Brave Souls (Chorus)
07. I Call You All To Woden's Hall (Ashley Stafford, Chorus)
08. Symphony - "Come If You Dare" (Paul Elliott Chorus)
Act 2
09. Hither This Way (Gillian Fisher (Philidel), Chorus)
10. Let Not A Moonborn Elf - Ritornello (Stephen Varcoe) (Grimbold)
11. Hither This Way (Chorus)
12. Come, Follow Me - Ritornello - Chorus
Gillian Fisher (Philidel), Jennifer Smith, Elisabeth Friday, Ashley Stafford, Paul Elliott, Stephen Varcoe (Spirits)
13. (Song Tune) How Blest Are Shepherds (Paul Elliott (Shepherd), Chorus)
14. Symphony - Shepherd, Shepherd, Leave Decoying (Gillian Fisher, Jennifer Smith (Shepherdesses))
15. Hornpipe - Come, Shepherds (Chorus Of Shepherds)
16 Second Act Tune: Air
Act 3
17. (The Frost Scene) Prelude - What Ho! Thou Genius Of This Isle Elisabeth Friday (Cupid)
18. Prelude While Cold Genius Rises - What Power Art Thou (Stephen Varcoe (Cold Genius))
19. Thou Doting Fool (Elisabeth Friday (Cupid))
20. Great Love (Stephen Varcoe (Cold Genius))
21. No Part Of My Dominion (Elisabeth Friday (Cupid))
22. Prelude - See, See, We Assemble (Chorus Of Cold People) – Dance
23 Tis I, 'Tis I That Have Warm'd Ye - Ritornello - Tis Love That Has Warm'd Us (Elisabeth Friday (Cupid), Chorus)
24. Sound A Parley - Ritornello
(Elisabeth Friday (Cupid), Stephen Varcoe (Genius), Chorus)
25. Third Act Tune: Hornpipe

CD3: King Arthur (2)
Act 4
01. Two Daughters Of This Aged Stream (Jennifer Smith, Gillian Fisher (Sirens))
02. Passacaglia - How Happy The Lover (Paul Elliott Chorus) - Ritornello
For Love Ev'ry Creature (Gillian Fisher, Jennifer Smith, Elisabeth Friday (Nymphs), Ashley Stafford, Paul Elliott Stephen Varcoe (Men), Chorus)
03. Fourth Act Tune: Air
Act 5
04. Trumpet Tune
05. Ye Blust'ring Brethren (Stephen Varcoe (Aeolus))
06. Symphony
07. Song Tune - Round Thy Coast (Jennifer Smith (Nereid), Stephen Varcoe (Pan), Chorus)
08. For Folded Flocks (Ashley Stafford, Paul Elliott Stephen Varcoe)
09. Ritornello - Your Hay It Is Mow'd (Paul Elliott (Comus), Ashley Stafford, Stephen Varcoe (Men)) - Ritornello
10. Fairest Isle (Gill Ross (Venus))
11. You Say 'Tis Love (Jennifer Smith (She), Stephen Varcoe (He))
12. Trumpet Tune (Warlike Consort)
13. Saint George (Jennifer Smith (Honour)) - Our Natives Not Alone Appear (Chorus)
14. Chaconne

Jennifer Smith, Soprano
Gillian Fisher, Soprano
Elisabeth Priday, Soprano
Gill Ross, Soprano
Ashley Stafford, Countertenor
Paul Elliott, Tenor
Stephen Varcoe, Baritone


CD4: Music for Queen Mary
Come, Ye Sons Of Art (Ode For The Birthday Of Queen Mary, 1694)
01. Ouverture
02. Come, Come, Ye Sons Of Art, Come, Come Away (Countertenor, Chorus)
03. Sound The Trumpet (Duo: Countertenors)
04. Come, Come, Ye Sons Of Art, Come, Come (Away Chorus)
05. Strike The Viol (Countertenor & Flutes)
06. The Day That Such A Blessing (Bass, Chorus)
07. Bid The Virtues (Soprano & Oboe)
08. These Are The Sacred (Charms Bass)
09. See Nature, Rejoicing (Duo: Soprano & Bass, Chorus)
Music For The Funeral Of Queen Mary (1695)
10. March
11. Man That Is Born (First Sentence)
12. Canzona
13. In The Midst Of Life (Second Sentence)
14. Canzona
15. Thou Knowest, Lord, The Secrets Of Our Hearts (Third Sentence)
16. March

Felicity Lott, Soprano
Charles Brett, John Williams, Countertenors
Thomas Allen, Bass


CD5: Hail! Bright Cecilia
01. Symphony
02. Hail! Bright Cecilia (All Voices, Chorus)
03. Hark! Hark! Each (Tree Countertenor I, Bass)
04. Tis Nature's (Voice Tenor)
05. Soul Of The World! (Chorus)
06. Thou Tun'st This World (Soprano)
07. With That Sublime Celestial Lay (Countertenors, Boss)
08. Wondrous Machine! (Bass)
09. The Airy (Violin Countertenor II)
10. In Vain The Am'rous (Flute Countertenor I, Tenor)
11. The Fife And All The Harmony Of War (Countertenor II)
12. Let These Among Themselves Contest (Baritone, Bass)
13. Hail! Bright Cecilia (Countertenors, Tenor, Bass, Chorus)

Jennifer Smith, Soprano
Ashley Stafford, Brian Gordon, Countertenors I & II
Paul Elliott, Tenor
Stephen Varcoe, Baritone
David Thomas, Bass


CD6: The Tempest
01 Ouverture
Act 2 Masque Of Devils
02. Duet & Chorus: Where Does The Black Fiend (First & Second Devils, Chorus)
03. Chorus: Around, Around We Pace
04. Air: Arise, Arise, Ye Subterranean Winds (First Devil)
05. Dance Of Winds
Act 3
06. Song & Chorus: Come Unto These Yellow Sands (Ariel, Chorus)
07. Song & Chorus: Full Fathom Five (Ariel, Chorus)
08. Air: Dry Those Eyes (Ariel)
09. Air: Kind Fortune Smiles (Ariel)
Act 4
10. Dance Of Devils
11. The Sailors' Dance
12. Air: Dear Pretty Youth (Dorinda)
Act 5 Neptune's Masque
13. Recitative & Air: Great Neptune! (Amphitrite, Neptune)
14. Chorus: The Nereids And Tritons
15. Recitative & Air: Aeolus, You Must Appear (Neptune)
16. Recitative & Air: Your Awful Voice I Hear (Aeolus)
17. Air: Halcyon Days (Amphitrite)
18. Air: See, See, The Heavens Smile (Neptune)
19. Duet & Chorus: No Stars Again Shall Hurt You (Amphitrite, Neptune, Chorus)

First Devil - David Thomas, Bass
Second Devil - Roderick Earle, Bass
Ariel - Carol Hall, Mezzo-Soprano
Dorinda - Rosemary Hardy, Soprano
Amphitrite - Jennifer Smith, Soprano
Neptune - Stephen Varcoe, Baritone
Aeolus - John Elwes, Tenor


CD7: Timon of Athens. Dioclesian (1)
Timon Of Athens
Tragedy
Libretto By Thomas Shadwell, After Shakespeare
01. Overture
The Masque
02. A Symphony Of Pipes Imitating The Chirping Of Birds - Hark! How The Songsters Of The Grove (Gillian Fisher, Lynne Dawson (Two Nymphs))
03. Love In Their Little Veins Inspires (Lynne Dawson (A Nymph))
04. But Ah! How Much Are Our Delights (Gillian Fisher, Lynne Dawson, Stephen Varcoe (Two Nymphs And A Shepherd))
05. Hence With Your Trifling Deity! (Michael George (A Bacchanal)) - But Over Us No Griefs Prevail (Rogers Covey-Crump, Paul Elliott Michael George (Three Bacchanals))
06. Come All, Come All To Me (Gillian Fisher (Cupid))
07. Who Can Resist (Chorus)
08. Return, Revolting Rebels! (Stephen Varcoe (Bacchus))
09. The Cares Of Lovers (Lynne Dawson (A Nymph))
10. Love Quickly Is Pall'd (Rogers Covey-Crump (A Bacchanal))
11. Come, Let Us Agree (Gillian Fisher, Stephen Varcoe (Cupid And Bacchus), Chorus)
12 Curtain Tune

Dioclesian
Semi-Opera In Five Acts
Libretto By Thomas Betterton After Massinger And Fletcher
13. First Music
14. Second Music
15. Overture
Act 1
16. First Act Tune: Hornpipe
Act 2
17. First Song: Great Diodes Stephen Varcoe, Chorus
18. Second Song, By A Woman: Charon, The Peaceful Shade Lynne Dawson Symphony - Duet: Let All Mankind The Pleasure Share Gillian Fisher, Michael George, Chorus
19. Martial Song: Let The Soldiers Rejoice Paul Elliott Chorus
20. Ritornello - Trio: To Mars Let'em Raise Paul Elliott Stephen Varcoe, Michael George, Chorus - Ritornello
21. A Symphony Of Flutes In The Air - Song: Since The Toils (Rogers Covey-Crump) - Quartet: Let The Priests (Gillian Fisher, Rogers Covey-Crump, Paul Elliott Stephen Varcoe, Chorus)
22. Dance Of Furies
23. Second Act Tune
Act 3
24. Chaconne (Two In One Upon A Ground)

CD8: Dioclesian (2)
01. Song: When First I Saw (Lynne Dawson)
02. The Chair Dance
03. Song: What Shall I Do (Lynne Dawson)
04. Third Act Tune
Act 4
05. Butterfly Dance
06. Trumpet Tune
07. Song: Sound, Fame (Paul Elliott, Chorus)
08. Fourth Act Tune
Act 5
09. Country Dance
10. Prelude
The Masque
Call The Nymphs (Gillian Fisher (Cupid), Chorus)
11. Come, Come Away (Stephen Varcoe, Michael George (A Bacchanalian And A Silvan))
First Entry
12. Prelude And Chorus: Behold, О Mightiest Of Gods - Paspe
13. Ah The Sweet Delights Of Love (Gillian Fisher, Lynne Dawson (Two Wood-Gods))
14. Let Monarchs Fight (Lynne Dawson (A Faun), Chorus)
15. Since From My Dear Astrea's Sight (Gillian Fisher (Another Faun))
Second Entry
16. Make Room (Stephen Varcoe, Michael George (Two Of Bacchus' Followers)) - I'm Here (Michael George (Bacchus)) - Trio: Give To Every One (Paul Elliott Stephen Varcoe, Michael George, Chorus) - Dance Of Bacchanals
17. Still I'm Wishing (Rogers Covey-Crump (One Of Cupid's Followers))
Third Entry
18. Canaries - Dialogue: Tell Me Why My Charming Fair (Gillian Fisher, Stephen Varcoe (Shepherd And Shepherdess))
Fourth Entry
19. Dance
20. All Our Days (Paul Effort (One Of The Pleasures)) - Let Us Dance (Lynne Dawson (Another Of The Pleasures), Chorus)
Fifth Entry
21. Dance - Trio: Triumph, Triumph Victorious Love (Rogers Covey-Crump, Paul Elliott, Michael George, Chorus)

Lynne Dawson, Soprano
Gillian Fisher, Soprano
Rogers Covey-Crump, Tenor
Paul Elliott, Tenor
Michael George, Bass
Stephen Varcoe, Bass




Exact Audio Copy V1.5 from 20. February 2020

EAC extraction logfile from 23. July 2020, 18:08

Rosemary Hardy, Martyn Hill, John Elwes, Ashley Stafford, David Thomas, Stephen Varcoe, Gillian Fisher / Purcell: The Indian Queen

Used drive : ATAPI iHAS124 F Adapter: 1 ID: 0

Read mode : Secure
Utilize accurate stream : Yes
Defeat audio cache : Yes
Make use of C2 pointers : No

Read offset correction : 6
Overread into Lead-In and Lead-Out : No
Fill up missing offset samples with silence : Yes
Delete leading and trailing silent blocks : No
Null samples used in CRC calculations : Yes
Used interface : Native Win32 interface for Win NT & 2000

Used output format : User Defined Encoder
Selected bitrate : 1024 kBit/s
Quality : High
Add ID3 tag : No
Command line compressor : C:\Program Files (x86)\Exact Audio Copy\FLAC\FLAC.EXE
Additional command line options : -6 -V -T "ARTIST=%artist%" -T "TITLE=%title%" -T "ALBUM=%albumtitle%" -T "DATE=%year%" -T "TRACKNUMBER=%tracknr%" -T "GENRE=%genre%" -T "COMMENT=%comment%" -T "BAND=%albuminterpret%" -T "ALBUMARTIST=%albuminterpret%" -T "COMPOSER=%composer%" %haslyrics%–tag-from-file=LYRICS="%lyricsfile%"%haslyrics% -T "DISCNUMBER=%cdnumber%" -T "TOTALDISCS=%totalcds%" -T "TOTALTRACKS=%numtracks%" %hascover%–picture="%coverfile%"%hascover% %source% -o %dest%


TOC of the extracted CD

Track | Start | Length | Start sector | End sector
––––––––––––––––––––––––––––-
1 | 0:00.00 | 1:19.45 | 0 | 5969
2 | 1:19.45 | 1:08.18 | 5970 | 11087
3 | 2:27.63 | 0:53.62 | 11088 | 15124
4 | 3:21.50 | 1:23.55 | 15125 | 21404
5 | 4:45.30 | 1:43.40 | 21405 | 29169
6 | 6:28.70 | 1:53.50 | 29170 | 37694
7 | 8:22.45 | 0:46.48 | 37695 | 41192
8 | 9:09.18 | 2:13.32 | 41193 | 51199
9 | 11:22.50 | 1:28.70 | 51200 | 57869
10 | 12:51.45 | 4:29.03 | 57870 | 78047
11 | 17:20.48 | 0:47.12 | 78048 | 81584
12 | 18:07.60 | 2:07.30 | 81585 | 91139
13 | 20:15.15 | 1:51.23 | 91140 | 99487
14 | 22:06.38 | 0:57.17 | 99488 | 103779
15 | 23:03.55 | 0:56.03 | 103780 | 107982
16 | 23:59.58 | 0:42.10 | 107983 | 111142
17 | 24:41.68 | 1:02.55 | 111143 | 115847
18 | 25:44.48 | 1:06.67 | 115848 | 120864
19 | 26:51.40 | 0:40.55 | 120865 | 123919
20 | 27:32.20 | 1:26.48 | 123920 | 130417
21 | 28:58.68 | 0:40.70 | 130418 | 133487
22 | 29:39.63 | 1:31.25 | 133488 | 140337
23 | 31:11.13 | 5:28.60 | 140338 | 164997
24 | 36:39.73 | 1:04.52 | 164998 | 169849
25 | 37:44.50 | 2:53.53 | 169850 | 182877
26 | 40:38.28 | 2:59.20 | 182878 | 196322
27 | 43:37.48 | 2:33.02 | 196323 | 207799
28 | 46:10.50 | 1:29.40 | 207800 | 214514
29 | 47:40.15 | 1:47.48 | 214515 | 222587
30 | 49:27.63 | 1:17.35 | 222588 | 228397
31 | 50:45.23 | 1:57.30 | 228398 | 237202
32 | 52:42.53 | 3:36.02 | 237203 | 253404
33 | 56:18.55 | 6:17.70 | 253405 | 281749


Range status and errors

Selected range

Filename C:\EACRip\VARIOUS\PURCELL COLLECTION (John Eliot Gardiner) (Erato, 1994)\CD1 - The Indian Queen\Purcell - The Indian Queen - John Eliot Gardiner.wav

Peak level 96.4 %
Extraction speed 9.1 X
Range quality 100.0 %
Test CRC BA0DB0D7
Copy CRC BA0DB0D7
Copy OK

No errors occurred


AccurateRip summary

Track 1 accurately ripped (confidence 20) [CD08E8E1] (AR v2)
Track 2 accurately ripped (confidence 20) [45550A27] (AR v2)
Track 3 accurately ripped (confidence 20) [16BD45F3] (AR v2)
Track 4 accurately ripped (confidence 20) [AE8C563E] (AR v2)
Track 5 accurately ripped (confidence 20) [F9DA1890] (AR v2)
Track 6 accurately ripped (confidence 20) [6E2571EC] (AR v2)
Track 7 accurately ripped (confidence 20) [B912B44A] (AR v2)
Track 8 accurately ripped (confidence 20) [92504B99] (AR v2)
Track 9 accurately ripped (confidence 20) [6621ADBC] (AR v2)
Track 10 accurately ripped (confidence 20) [177480D3] (AR v2)
Track 11 accurately ripped (confidence 20) [5B23ACA4] (AR v2)
Track 12 accurately ripped (confidence 20) [24C6973B] (AR v2)
Track 13 accurately ripped (confidence 20) [45622F36] (AR v2)
Track 14 accurately ripped (confidence 20) [32851126] (AR v2)
Track 15 accurately ripped (confidence 20) [5209E301] (AR v2)
Track 16 accurately ripped (confidence 20) [40A33761] (AR v2)
Track 17 accurately ripped (confidence 20) [020164D1] (AR v2)
Track 18 accurately ripped (confidence 20) [5062576E] (AR v2)
Track 19 accurately ripped (confidence 20) [C1AB23EF] (AR v2)
Track 20 accurately ripped (confidence 20) [8945F88B] (AR v2)
Track 21 accurately ripped (confidence 20) [B2E51495] (AR v2)
Track 22 accurately ripped (confidence 20) [1B6D73CA] (AR v2)
Track 23 accurately ripped (confidence 20) [FCB1F260] (AR v2)
Track 24 accurately ripped (confidence 20) [40FC86D9] (AR v2)
Track 25 accurately ripped (confidence 20) [525E6586] (AR v2)
Track 26 accurately ripped (confidence 20) [9DC30F43] (AR v2)
Track 27 accurately ripped (confidence 20) [C1C44024] (AR v2)
Track 28 accurately ripped (confidence 20) [4BE8ACC7] (AR v2)
Track 29 accurately ripped (confidence 20) [CF8AEF06] (AR v2)
Track 30 accurately ripped (confidence 20) [5CC72429] (AR v2)
Track 31 accurately ripped (confidence 20) [BBE19302] (AR v2)
Track 32 accurately ripped (confidence 20) [28DEB183] (AR v2)
Track 33 accurately ripped (confidence 20) [3F3C6FE5] (AR v2)

All tracks accurately ripped

End of status report

–– CUETools DB Plugin V2.1.6

[CTDB TOCID: uPunOHoCYHmGzoB8EmlQSZtYVK8-] found
Submit result: uPunOHoCYHmGzoB8EmlQSZtYVK8- has been confirmed, uPunOHoCYHmGzoB8EmlQSZtYVK8- has been confirmed
Track | CTDB Status
1 | (92/93) Accurately ripped
2 | (92/93) Accurately ripped
3 | (92/93) Accurately ripped
4 | (92/93) Accurately ripped
5 | (92/93) Accurately ripped
6 | (92/93) Accurately ripped
7 | (91/93) Accurately ripped
8 | (92/93) Accurately ripped
9 | (92/93) Accurately ripped
10 | (92/93) Accurately ripped
11 | (91/93) Accurately ripped
12 | (92/93) Accurately ripped
13 | (92/93) Accurately ripped
14 | (92/93) Accurately ripped
15 | (92/93) Accurately ripped
16 | (92/93) Accurately ripped
17 | (92/93) Accurately ripped
18 | (92/93) Accurately ripped
19 | (92/93) Accurately ripped
20 | (92/93) Accurately ripped
21 | (92/93) Accurately ripped
22 | (91/93) Accurately ripped
23 | (92/93) Accurately ripped
24 | (92/93) Accurately ripped
25 | (92/93) Accurately ripped
26 | (91/93) Accurately ripped
27 | (91/93) Accurately ripped
28 | (91/93) Accurately ripped
29 | (91/93) Accurately ripped
30 | (91/93) Accurately ripped
31 | (92/93) Accurately ripped
32 | (91/93) Accurately ripped
33 | (91/93) Accurately ripped


==== Log checksum 68615852D5249466FFBA0349A47B2AAA9C118C70909AD64E321A1DAD07A2E77B ====


Exact Audio Copy V1.5 from 20. February 2020

EAC extraction logfile from 23. July 2020, 19:04

Jennifer Smith, Gillian Fisher, Elisabeth Priday, Gill Ross, Ashley Stafford, Paul Elliott, Stephen Varcoe / King Arthur (Disc 1)

Used drive : ATAPI iHAS124 F Adapter: 1 ID: 0

Read mode : Secure
Utilize accurate stream : Yes
Defeat audio cache : Yes
Make use of C2 pointers : No

Read offset correction : 6
Overread into Lead-In and Lead-Out : No
Fill up missing offset samples with silence : Yes
Delete leading and trailing silent blocks : No
Null samples used in CRC calculations : Yes
Used interface : Native Win32 interface for Win NT & 2000

Used output format : User Defined Encoder
Selected bitrate : 1024 kBit/s
Quality : High
Add ID3 tag : No
Command line compressor : C:\Program Files (x86)\Exact Audio Copy\FLAC\FLAC.EXE
Additional command line options : -6 -V -T "ARTIST=%artist%" -T "TITLE=%title%" -T "ALBUM=%albumtitle%" -T "DATE=%year%" -T "TRACKNUMBER=%tracknr%" -T "GENRE=%genre%" -T "COMMENT=%comment%" -T "BAND=%albuminterpret%" -T "ALBUMARTIST=%albuminterpret%" -T "COMPOSER=%composer%" %haslyrics%–tag-from-file=LYRICS="%lyricsfile%"%haslyrics% -T "DISCNUMBER=%cdnumber%" -T "TOTALDISCS=%totalcds%" -T "TOTALTRACKS=%numtracks%" %hascover%–picture="%coverfile%"%hascover% %source% -o %dest%


TOC of the extracted CD

Track | Start | Length | Start sector | End sector
––––––––––––––––––––––––––––-
1 | 0:00.00 | 1:47.70 | 0 | 8094
2 | 1:47.70 | 1:30.20 | 8095 | 14864
3 | 3:18.15 | 1:18.27 | 14865 | 20741
4 | 4:36.42 | 3:40.00 | 20742 | 37241
5 | 8:16.42 | 0:32.08 | 37242 | 39649
6 | 8:48.50 | 2:21.15 | 39650 | 50239
7 | 11:09.65 | 2:02.42 | 50240 | 59431
8 | 13:12.32 | 3:44.43 | 59432 | 76274
9 | 16:57.00 | 2:12.50 | 76275 | 86224
10 | 19:09.50 | 1:15.12 | 86225 | 91861
11 | 20:24.62 | 0:37.48 | 91862 | 94684
12 | 21:02.35 | 2:27.22 | 94685 | 105731
13 | 23:29.57 | 6:37.25 | 105732 | 135531
14 | 30:07.07 | 2:11.35 | 135532 | 145391
15 | 32:18.42 | 1:38.03 | 145392 | 152744
16 | 33:56.45 | 0:59.42 | 152745 | 157211
17 | 34:56.12 | 1:22.58 | 157212 | 163419
18 | 36:18.70 | 2:51.57 | 163420 | 176301
19 | 39:10.52 | 1:03.35 | 176302 | 181061
20 | 40:14.12 | 0:54.08 | 181062 | 185119
21 | 41:08.20 | 0:55.57 | 185120 | 189301
22 | 42:04.02 | 3:26.70 | 189302 | 204821
23 | 45:30.72 | 2:01.68 | 204822 | 213964
24 | 47:32.65 | 3:44.50 | 213965 | 230814
25 | 51:17.40 | 0:39.35 | 230815 | 233774


Range status and errors

Selected range

Filename C:\EACRip\VARIOUS\PURCELL COLLECTION (John Eliot Gardiner) (Erato, 1994)\CD2 - King Arthur (1)\Purcell - King Arthur (Disc 1) - John Eliot Gardiner.wav

Peak level 81.9 %
Extraction speed 8.1 X
Range quality 100.0 %
Test CRC 0D0A682B
Copy CRC 0D0A682B
Copy OK

No errors occurred


AccurateRip summary

Track 1 accurately ripped (confidence 30) [D3D7C2D1] (AR v2)
Track 2 accurately ripped (confidence 30) [73506EEF] (AR v2)
Track 3 accurately ripped (confidence 30) [2A3B619D] (AR v2)
Track 4 accurately ripped (confidence 30) [046E2FFE] (AR v2)
Track 5 accurately ripped (confidence 30) [C43DA42F] (AR v2)
Track 6 accurately ripped (confidence 30) [B4A95A27] (AR v2)
Track 7 accurately ripped (confidence 30) [04A2F29D] (AR v2)
Track 8 accurately ripped (confidence 30) [23039E43] (AR v2)
Track 9 accurately ripped (confidence 30) [55BEC7C7] (AR v2)
Track 10 accurately ripped (confidence 30) [3EEAF57A] (AR v2)
Track 11 accurately ripped (confidence 30) [5CB22203] (AR v2)
Track 12 accurately ripped (confidence 30) [31324A48] (AR v2)
Track 13 accurately ripped (confidence 30) [15E2A080] (AR v2)
Track 14 accurately ripped (confidence 30) [EFAAA242] (AR v2)
Track 15 accurately ripped (confidence 30) [1F06D3BC] (AR v2)
Track 16 accurately ripped (confidence 30) [67EA74D1] (AR v2)
Track 17 accurately ripped (confidence 30) [BDB133F5] (AR v2)
Track 18 accurately ripped (confidence 30) [7E9B446E] (AR v2)
Track 19 accurately ripped (confidence 30) [D7F4146C] (AR v2)
Track 20 accurately ripped (confidence 30) [A13B6046] (AR v2)
Track 21 accurately ripped (confidence 30) [5F1421CB] (AR v2)
Track 22 accurately ripped (confidence 30) [2A45BA0A] (AR v2)
Track 23 accurately ripped (confidence 30) [60F9B057] (AR v2)
Track 24 accurately ripped (confidence 30) [F70B56F8] (AR v2)
Track 25 accurately ripped (confidence 30) [58353267] (AR v2)

All tracks accurately ripped

End of status report

–– CUETools DB Plugin V2.1.6

[CTDB TOCID: BqOqL5Ozco_NX_OVOxuSwWTwUVY-] found
Submit result: BqOqL5Ozco_NX_OVOxuSwWTwUVY- has been confirmed
Track | CTDB Status
1 | (70/92) Accurately ripped, or (21/92) differs in 6 samples @00:51:32
2 | (90/92) Accurately ripped
3 | (90/92) Accurately ripped
4 | (90/92) Accurately ripped
5 | (91/92) Accurately ripped
6 | (91/92) Accurately ripped
7 | (90/92) Accurately ripped
8 | (91/92) Accurately ripped
9 | (91/92) Accurately ripped
10 | (91/92) Accurately ripped
11 | (91/92) Accurately ripped
12 | (90/92) Accurately ripped
13 | (89/92) Accurately ripped
14 | (91/92) Accurately ripped
15 | (91/92) Accurately ripped
16 | (90/92) Accurately ripped
17 | (90/92) Accurately ripped
18 | (89/92) Accurately ripped
19 | (91/92) Accurately ripped
20 | (91/92) Accurately ripped
21 | (90/92) Accurately ripped
22 | (90/92) Accurately ripped
23 | (90/92) Accurately ripped
24 | (90/92) Accurately ripped
25 | (91/92) Accurately ripped


==== Log checksum 9694696540314C269060B0C31E28AC65B7736BEFDF95EC55831F768665553AEF ====


Exact Audio Copy V1.5 from 20. February 2020

EAC extraction logfile from 23. July 2020, 19:40

Jennifer Smith, Gillian Fisher, Elisabeth Priday, Gill Ross, Ashley Stafford, Paul Elliott, Stephen Varcoe / King Arthur (Disc 2)

Used drive : ATAPI iHAS124 F Adapter: 1 ID: 0

Read mode : Secure
Utilize accurate stream : Yes
Defeat audio cache : Yes
Make use of C2 pointers : No

Read offset correction : 6
Overread into Lead-In and Lead-Out : No
Fill up missing offset samples with silence : Yes
Delete leading and trailing silent blocks : No
Null samples used in CRC calculations : Yes
Used interface : Native Win32 interface for Win NT & 2000

Used output format : User Defined Encoder
Selected bitrate : 1024 kBit/s
Quality : High
Add ID3 tag : No
Command line compressor : C:\Program Files (x86)\Exact Audio Copy\FLAC\FLAC.EXE
Additional command line options : -6 -V -T "ARTIST=%artist%" -T "TITLE=%title%" -T "ALBUM=%albumtitle%" -T "DATE=%year%" -T "TRACKNUMBER=%tracknr%" -T "GENRE=%genre%" -T "COMMENT=%comment%" -T "BAND=%albuminterpret%" -T "ALBUMARTIST=%albuminterpret%" -T "COMPOSER=%composer%" %haslyrics%–tag-from-file=LYRICS="%lyricsfile%"%haslyrics% -T "DISCNUMBER=%cdnumber%" -T "TOTALDISCS=%totalcds%" -T "TOTALTRACKS=%numtracks%" %hascover%–picture="%coverfile%"%hascover% %source% -o %dest%


TOC of the extracted CD

Track | Start | Length | Start sector | End sector
––––––––––––––––––––––––––––-
1 | 0:00.00 | 2:42.38 | 0 | 12187
2 | 2:42.38 | 6:11.65 | 12188 | 40077
3 | 8:54.28 | 0:56.05 | 40078 | 44282
4 | 9:50.33 | 0:39.55 | 44283 | 47262
5 | 10:30.13 | 2:50.60 | 47263 | 60072
6 | 13:20.73 | 1:40.25 | 60073 | 67597
7 | 15:01.23 | 3:18.55 | 67598 | 82502
8 | 18:20.03 | 2:43.30 | 82503 | 94757
9 | 21:03.33 | 3:02.57 | 94758 | 108464
10 | 24:06.15 | 4:08.20 | 108465 | 127084
11 | 28:14.35 | 5:28.10 | 127085 | 151694
12 | 33:42.45 | 0:36.08 | 151695 | 154402
13 | 34:18.53 | 2:01.30 | 154403 | 163507
14 | 36:20.08 | 3:24.42 | 163508 | 178849


Range status and errors

Selected range

Filename C:\EACRip\VARIOUS\PURCELL COLLECTION (John Eliot Gardiner) (Erato, 1994)\CD3 - King Arthur (2)\Purcell - King Arthur (Disc 2) - John Eliot Gardiner.wav

Peak level 81.9 %
Extraction speed 7.6 X
Range quality 100.0 %
Test CRC 1FFEF304
Copy CRC 1FFEF304
Copy OK

No errors occurred


AccurateRip summary

Track 1 accurately ripped (confidence 30) [C68C86EF] (AR v2)
Track 2 accurately ripped (confidence 30) [0973B47B] (AR v2)
Track 3 accurately ripped (confidence 30) [96795C03] (AR v2)
Track 4 accurately ripped (confidence 30) [31EE688C] (AR v2)
Track 5 accurately ripped (confidence 30) [7929834F] (AR v2)
Track 6 accurately ripped (confidence 30) [3BDCC600] (AR v2)
Track 7 accurately ripped (confidence 30) [9A20F0B6] (AR v2)
Track 8 accurately ripped (confidence 30) [D294F2BF] (AR v2)
Track 9 accurately ripped (confidence 29) [690EB1FD] (AR v2)
Track 10 accurately ripped (confidence 29) [442D2EBF] (AR v2)
Track 11 accurately ripped (confidence 30) [04753C7C] (AR v2)
Track 12 accurately ripped (confidence 30) [CE4B86A1] (AR v2)
Track 13 accurately ripped (confidence 30) [4F73BE5E] (AR v2)
Track 14 accurately ripped (confidence 30) [ED11D66E] (AR v2)

All tracks accurately ripped

End of status report

–– CUETools DB Plugin V2.1.6

[CTDB TOCID: prjrRMCVYx9w0R4fh4KqExjY5sA-] found
Submit result: prjrRMCVYx9w0R4fh4KqExjY5sA- has been confirmed
Track | CTDB Status
1 | (91/92) Accurately ripped
2 | (92/92) Accurately ripped
3 | (90/92) Accurately ripped
4 | (92/92) Accurately ripped
5 | (91/92) Accurately ripped
6 | (91/92) Accurately ripped
7 | (91/92) Accurately ripped
8 | (91/92) Accurately ripped
9 | (91/92) Accurately ripped
10 | (90/92) Accurately ripped
11 | (89/92) Accurately ripped
12 | (91/92) Accurately ripped
13 | (90/92) Accurately ripped
14 | (90/92) Accurately ripped


==== Log checksum E9988D1B39BDE45FF3F9931C0E7DE32E61563D37895A7A8A05BFB15D6AD18638 ====


Exact Audio Copy V1.5 from 20. February 2020

EAC extraction logfile from 23. July 2020, 23:32

Felicity Lott, Charles Brett, John Williams, Thomas Allen / Music for Queen Mary

Used drive : ATAPI iHAS124 F Adapter: 1 ID: 0

Read mode : Secure
Utilize accurate stream : Yes
Defeat audio cache : Yes
Make use of C2 pointers : No

Read offset correction : 6
Overread into Lead-In and Lead-Out : No
Fill up missing offset samples with silence : Yes
Delete leading and trailing silent blocks : No
Null samples used in CRC calculations : Yes
Used interface : Native Win32 interface for Win NT & 2000

Used output format : User Defined Encoder
Selected bitrate : 1024 kBit/s
Quality : High
Add ID3 tag : No
Command line compressor : C:\Program Files (x86)\Exact Audio Copy\FLAC\FLAC.EXE
Additional command line options : -6 -V -T "ARTIST=%artist%" -T "TITLE=%title%" -T "ALBUM=%albumtitle%" -T "DATE=%year%" -T "TRACKNUMBER=%tracknr%" -T "GENRE=%genre%" -T "COMMENT=%comment%" -T "BAND=%albuminterpret%" -T "ALBUMARTIST=%albuminterpret%" -T "COMPOSER=%composer%" %haslyrics%–tag-from-file=LYRICS="%lyricsfile%"%haslyrics% -T "DISCNUMBER=%cdnumber%" -T "TOTALDISCS=%totalcds%" -T "TOTALTRACKS=%numtracks%" %hascover%–picture="%coverfile%"%hascover% %source% -o %dest%


TOC of the extracted CD

Track | Start | Length | Start sector | End sector
––––––––––––––––––––––––––––-
1 | 0:00.00 | 4:11.53 | 0 | 18877
2 | 4:11.53 | 1:59.55 | 18878 | 27857
3 | 6:11.33 | 2:27.37 | 27858 | 38919
4 | 8:38.70 | 1:22.55 | 38920 | 45124
5 | 10:01.50 | 4:45.10 | 45125 | 66509
6 | 14:46.60 | 2:33.18 | 66510 | 78002
7 | 17:20.03 | 3:32.17 | 78003 | 93919
8 | 20:52.20 | 1:39.70 | 93920 | 101414
9 | 22:32.15 | 3:01.00 | 101415 | 114989
10 | 25:33.15 | 2:17.25 | 114990 | 125289
11 | 27:50.40 | 3:49.33 | 125290 | 142497
12 | 31:39.73 | 1:43.25 | 142498 | 150247
13 | 33:23.23 | 5:55.72 | 150248 | 176944
14 | 39:19.20 | 0:52.55 | 176945 | 180899
15 | 40:12.00 | 2:22.25 | 180900 | 191574
16 | 42:34.25 | 2:16.30 | 191575 | 201804


Range status and errors

Selected range

Filename C:\EACRip\VARIOUS\PURCELL COLLECTION (John Eliot Gardiner) (Erato, 1994)\CD4 - Music for Queen Mary\Purcell - Music for Queen Mary - John Eliot Gardiner.wav

Peak level 82.2 %
Extraction speed 7.9 X
Range quality 100.0 %
Test CRC 225E2BCA
Copy CRC 225E2BCA
Copy OK

No errors occurred


AccurateRip summary

Track 1 accurately ripped (confidence 28) [F9EA2AF4] (AR v2)
Track 2 accurately ripped (confidence 30) [9BF8EEA7] (AR v2)
Track 3 accurately ripped (confidence 30) [1CCF757D] (AR v2)
Track 4 accurately ripped (confidence 29) [ADE21DD5] (AR v2)
Track 5 accurately ripped (confidence 29) [08F932D7] (AR v2)
Track 6 accurately ripped (confidence 29) [D460B1BA] (AR v2)
Track 7 accurately ripped (confidence 29) [FE1BA64A] (AR v2)
Track 8 accurately ripped (confidence 29) [48BE4436] (AR v2)
Track 9 accurately ripped (confidence 30) [24308704] (AR v2)
Track 10 accurately ripped (confidence 31) [F1654BAA] (AR v2)
Track 11 accurately ripped (confidence 29) [D7300874] (AR v2)
Track 12 accurately ripped (confidence 29) [63EEA6A2] (AR v2)
Track 13 accurately ripped (confidence 29) [C427493A] (AR v2)
Track 14 accurately ripped (confidence 29) [641FAC0F] (AR v2)
Track 15 accurately ripped (confidence 30) [B48620BF] (AR v2)
Track 16 accurately ripped (confidence 29) [668D7E7B] (AR v2)

All tracks accurately ripped

End of status report

–– CUETools DB Plugin V2.1.6

[CTDB TOCID: vJGNO5AAaXoN3LydieXwF7H8q6I-] found
Submit result: vJGNO5AAaXoN3LydieXwF7H8q6I- has been confirmed
Track | CTDB Status
1 | (166/169) Accurately ripped
2 | (165/169) Accurately ripped
3 | (163/169) Accurately ripped
4 | (166/169) Accurately ripped
5 | (165/169) Accurately ripped
6 | (166/169) Accurately ripped
7 | (167/169) Accurately ripped
8 | (167/169) Accurately ripped
9 | (167/169) Accurately ripped
10 | (167/169) Accurately ripped
11 | (167/169) Accurately ripped
12 | (167/169) Accurately ripped
13 | (165/169) Accurately ripped
14 | (167/169) Accurately ripped
15 | (167/169) Accurately ripped
16 | (165/169) Accurately ripped


==== Log checksum 420C8ED7D8B18BD512FB7AD0A05275E2DAD4020BF736C2B0FF85D7BED2E48FDC ====


Exact Audio Copy V1.5 from 20. February 2020

EAC extraction logfile from 24. July 2020, 0:32

Jennifer Smith, Ashley Stafford, Brian Gordon, Paul Elliott, Stephen Varcoe, David Thomas / Hail! Bright Cecilia

Used drive : ATAPI iHAS124 F Adapter: 1 ID: 0

Read mode : Secure
Utilize accurate stream : Yes
Defeat audio cache : Yes
Make use of C2 pointers : No

Read offset correction : 6
Overread into Lead-In and Lead-Out : No
Fill up missing offset samples with silence : Yes
Delete leading and trailing silent blocks : No
Null samples used in CRC calculations : Yes
Used interface : Native Win32 interface for Win NT & 2000

Used output format : User Defined Encoder
Selected bitrate : 1024 kBit/s
Quality : High
Add ID3 tag : No
Command line compressor : C:\Program Files (x86)\Exact Audio Copy\FLAC\FLAC.EXE
Additional command line options : -6 -V -T "ARTIST=%artist%" -T "TITLE=%title%" -T "ALBUM=%albumtitle%" -T "DATE=%year%" -T "TRACKNUMBER=%tracknr%" -T "GENRE=%genre%" -T "COMMENT=%comment%" -T "BAND=%albuminterpret%" -T "ALBUMARTIST=%albuminterpret%" -T "COMPOSER=%composer%" %haslyrics%–tag-from-file=LYRICS="%lyricsfile%"%haslyrics% -T "DISCNUMBER=%cdnumber%" -T "TOTALDISCS=%totalcds%" -T "TOTALTRACKS=%numtracks%" %hascover%–picture="%coverfile%"%hascover% %source% -o %dest%


TOC of the extracted CD

Track | Start | Length | Start sector | End sector
––––––––––––––––––––––––––––-
1 | 0:00.00 | 9:37.62 | 0 | 43336
2 | 9:37.62 | 4:42.70 | 43337 | 64556
3 | 14:20.57 | 3:59.28 | 64557 | 82509
4 | 18:20.10 | 4:12.72 | 82510 | 101481
5 | 22:33.07 | 2:33.00 | 101482 | 112956
6 | 25:06.07 | 5:12.60 | 112957 | 136416
7 | 30:18.67 | 3:06.68 | 136417 | 150434
8 | 33:25.60 | 2:15.50 | 150435 | 160609
9 | 35:41.35 | 1:22.00 | 160610 | 166759
10 | 37:03.35 | 6:18.65 | 166760 | 195174
11 | 43:22.25 | 3:01.60 | 195175 | 208809
12 | 46:24.10 | 2:31.15 | 208810 | 220149
13 | 48:55.25 | 4:20.32 | 220150 | 239681


Range status and errors

Selected range

Filename C:\EACRip\VARIOUS\PURCELL COLLECTION (John Eliot Gardiner) (Erato, 1994)\CD5 - Hail! Bright Cecilia\Purcell - Hail! Bright Cecilia - John Eliot Gardiner.wav

Peak level 81.6 %
Extraction speed 8.2 X
Range quality 100.0 %
Test CRC ADFACC77
Copy CRC ADFACC77
Copy OK

No errors occurred


AccurateRip summary

Track 1 accurately ripped (confidence 29) [92C1336B] (AR v2)
Track 2 accurately ripped (confidence 29) [DB1C3BE5] (AR v2)
Track 3 accurately ripped (confidence 29) [6B72A59E] (AR v2)
Track 4 accurately ripped (confidence 29) [B5CC34B0] (AR v2)
Track 5 accurately ripped (confidence 29) [3C941614] (AR v2)
Track 6 accurately ripped (confidence 28) [FF93DC89] (AR v2)
Track 7 accurately ripped (confidence 29) [82DC0248] (AR v2)
Track 8 accurately ripped (confidence 29) [E9D0EFA4] (AR v2)
Track 9 accurately ripped (confidence 29) [387F59AE] (AR v2)
Track 10 accurately ripped (confidence 29) [9CB703D7] (AR v2)
Track 11 accurately ripped (confidence 29) [5F51B249] (AR v2)
Track 12 accurately ripped (confidence 29) [622722A4] (AR v2)
Track 13 accurately ripped (confidence 29) [4A7C1C52] (AR v2)

All tracks accurately ripped

End of status report

–– CUETools DB Plugin V2.1.6

[CTDB TOCID: xTteAUntUv9vResQNB09FcMFezI-] found
Submit result: xTteAUntUv9vResQNB09FcMFezI- has been confirmed
Track | CTDB Status
1 | (87/87) Accurately ripped
2 | (87/87) Accurately ripped
3 | (87/87) Accurately ripped
4 | (87/87) Accurately ripped
5 | (87/87) Accurately ripped
6 | (87/87) Accurately ripped
7 | (87/87) Accurately ripped
8 | (87/87) Accurately ripped
9 | (87/87) Accurately ripped
10 | (87/87) Accurately ripped
11 | (87/87) Accurately ripped
12 | (87/87) Accurately ripped
13 | (86/87) Accurately ripped


==== Log checksum F3026A995EBB829A9D5D63A18879466CE9F7555CCE82CBC13CABEDA0D95DE1EA ====


Exact Audio Copy V1.5 from 20. February 2020

EAC extraction logfile from 24. July 2020, 1:16

David Thomas, Roderick Earle, Carol Hall, Rosemary Hardy, Jennifer Smith, Stephen Varcoe, John Elwes / The Tempest

Used drive : ATAPI iHAS124 F Adapter: 1 ID: 0

Read mode : Secure
Utilize accurate stream : Yes
Defeat audio cache : Yes
Make use of C2 pointers : No

Read offset correction : 6
Overread into Lead-In and Lead-Out : No
Fill up missing offset samples with silence : Yes
Delete leading and trailing silent blocks : No
Null samples used in CRC calculations : Yes
Used interface : Native Win32 interface for Win NT & 2000

Used output format : User Defined Encoder
Selected bitrate : 1024 kBit/s
Quality : High
Add ID3 tag : No
Command line compressor : C:\Program Files (x86)\Exact Audio Copy\FLAC\FLAC.EXE
Additional command line options : -6 -V -T "ARTIST=%artist%" -T "TITLE=%title%" -T "ALBUM=%albumtitle%" -T "DATE=%year%" -T "TRACKNUMBER=%tracknr%" -T "GENRE=%genre%" -T "COMMENT=%comment%" -T "BAND=%albuminterpret%" -T "ALBUMARTIST=%albuminterpret%" -T "COMPOSER=%composer%" %haslyrics%–tag-from-file=LYRICS="%lyricsfile%"%haslyrics% -T "DISCNUMBER=%cdnumber%" -T "TOTALDISCS=%totalcds%" -T "TOTALTRACKS=%numtracks%" %hascover%–picture="%coverfile%"%hascover% %source% -o %dest%


TOC of the extracted CD

Track | Start | Length | Start sector | End sector
––––––––––––––––––––––––––––-
1 | 0:00.00 | 4:10.08 | 0 | 18757
2 | 4:10.08 | 2:07.07 | 18758 | 28289
3 | 6:17.15 | 1:37.48 | 28290 | 35612
4 | 7:54.63 | 3:02.15 | 35613 | 49277
5 | 10:57.03 | 1:21.50 | 49278 | 55402
6 | 12:18.53 | 1:24.65 | 55403 | 61767
7 | 13:43.43 | 2:12.62 | 61768 | 71729
8 | 15:56.30 | 6:08.55 | 71730 | 99384
9 | 22:05.10 | 1:07.20 | 99385 | 104429
10 | 23:12.30 | 0:27.43 | 104430 | 106497
11 | 23:39.73 | 1:09.22 | 106498 | 111694
12 | 24:49.20 | 2:08.35 | 111695 | 121329
13 | 26:57.55 | 4:04.63 | 121330 | 139692
14 | 31:02.43 | 1:54.47 | 139693 | 148289
15 | 32:57.15 | 3:14.58 | 148290 | 162897
16 | 36:11.73 | 4:21.47 | 162898 | 182519
17 | 40:33.45 | 6:30.23 | 182520 | 211792
18 | 47:03.68 | 4:56.47 | 211793 | 234039
19 | 52:00.40 | 5:30.45 | 234040 | 258834


Range status and errors

Selected range

Filename C:\EACRip\VARIOUS\PURCELL COLLECTION (John Eliot Gardiner) (Erato, 1994)\CD6 - The Tempest\Purcell - The Tempest - John Eliot Gardiner.wav

Peak level 98.4 %
Extraction speed 8.6 X
Range quality 99.9 %
Test CRC 3C144D7A
Copy CRC 3C144D7A
Copy OK

No errors occurred


AccurateRip summary

Track 1 accurately ripped (confidence 29) [4896F467] (AR v2)
Track 2 accurately ripped (confidence 29) [A92097A1] (AR v2)
Track 3 accurately ripped (confidence 29) [E702C89D] (AR v2)
Track 4 accurately ripped (confidence 29) [F6A4DB32] (AR v2)
Track 5 accurately ripped (confidence 29) [5FE0748B] (AR v2)
Track 6 accurately ripped (confidence 29) [F10F01D3] (AR v2)
Track 7 accurately ripped (confidence 29) [6879033A] (AR v2)
Track 8 accurately ripped (confidence 29) [E22D60A7] (AR v2)
Track 9 accurately ripped (confidence 29) [AD2CA6BC] (AR v2)
Track 10 accurately ripped (confidence 29) [C773EF3A] (AR v2)
Track 11 accurately ripped (confidence 29) [340FB19C] (AR v2)
Track 12 accurately ripped (confidence 29) [EA0F4008] (AR v2)
Track 13 accurately ripped (confidence 29) [B953A6DC] (AR v2)
Track 14 accurately ripped (confidence 29) [DC69D3D7] (AR v2)
Track 15 accurately ripped (confidence 29) [FF172DA8] (AR v2)
Track 16 accurately ripped (confidence 29) [A4135EC3] (AR v2)
Track 17 accurately ripped (confidence 29) [A093EFAB] (AR v2)
Track 18 accurately ripped (confidence 29) [F5390E46] (AR v2)
Track 19 accurately ripped (confidence 29) [37B3A6C1] (AR v2)

All tracks accurately ripped

End of status report

–– CUETools DB Plugin V2.1.6

[CTDB TOCID: iqLTrTmwcr0BvdF70aRJG5St.Fo-] found
Submit result: iqLTrTmwcr0BvdF70aRJG5St.Fo- has been confirmed
Track | CTDB Status
1 | (49/50) Accurately ripped
2 | (50/50) Accurately ripped
3 | (50/50) Accurately ripped
4 | (50/50) Accurately ripped
5 | (50/50) Accurately ripped
6 | (50/50) Accurately ripped
7 | (50/50) Accurately ripped
8 | (49/50) Accurately ripped
9 | (50/50) Accurately ripped
10 | (50/50) Accurately ripped
11 | (50/50) Accurately ripped
12 | (50/50) Accurately ripped
13 | (50/50) Accurately ripped
14 | (50/50) Accurately ripped
15 | (49/50) Accurately ripped
16 | (50/50) Accurately ripped
17 | (49/50) Accurately ripped
18 | (50/50) Accurately ripped
19 | (49/50) Accurately ripped


==== Log checksum 0A7D92EF6F8251255B06ED0C6B7C2D2C6BEB615ACAE83ED321E822DC96731C65 ====


Exact Audio Copy V1.5 from 20. February 2020

EAC extraction logfile from 24. July 2020, 2:23

Lynne Dawson, Gillian Fisher, Rogers Covey-Crump, Paul Elliott, Michael George, Stephen Varcoe / Timon of Athens. Dioclesian (Disc 1)

Used drive : ATAPI iHAS124 F Adapter: 1 ID: 0

Read mode : Secure
Utilize accurate stream : Yes
Defeat audio cache : Yes
Make use of C2 pointers : No

Read offset correction : 6
Overread into Lead-In and Lead-Out : No
Fill up missing offset samples with silence : Yes
Delete leading and trailing silent blocks : No
Null samples used in CRC calculations : Yes
Used interface : Native Win32 interface for Win NT & 2000

Used output format : User Defined Encoder
Selected bitrate : 1024 kBit/s
Quality : High
Add ID3 tag : No
Command line compressor : C:\Program Files (x86)\Exact Audio Copy\FLAC\FLAC.EXE
Additional command line options : -6 -V -T "ARTIST=%artist%" -T "TITLE=%title%" -T "ALBUM=%albumtitle%" -T "DATE=%year%" -T "TRACKNUMBER=%tracknr%" -T "GENRE=%genre%" -T "COMMENT=%comment%" -T "BAND=%albuminterpret%" -T "ALBUMARTIST=%albuminterpret%" -T "COMPOSER=%composer%" %haslyrics%–tag-from-file=LYRICS="%lyricsfile%"%haslyrics% -T "DISCNUMBER=%cdnumber%" -T "TOTALDISCS=%totalcds%" -T "TOTALTRACKS=%numtracks%" %hascover%–picture="%coverfile%"%hascover% %source% -o %dest%


TOC of the extracted CD

Track | Start | Length | Start sector | End sector
––––––––––––––––––––––––––––-
1 | 0:00.00 | 2:41.67 | 0 | 12141
2 | 2:41.67 | 1:40.38 | 12142 | 19679
3 | 4:22.30 | 1:22.67 | 19680 | 25896
4 | 5:45.22 | 1:12.20 | 25897 | 31316
5 | 6:57.42 | 2:32.38 | 31317 | 42754
6 | 9:30.05 | 1:12.20 | 42755 | 48174
7 | 10:42.25 | 1:33.67 | 48175 | 55216
8 | 12:16.17 | 1:47.08 | 55217 | 63249
9 | 14:03.25 | 1:37.70 | 63250 | 70594
10 | 15:41.20 | 1:03.15 | 70595 | 75334
11 | 16:44.35 | 1:57.30 | 75335 | 84139
12 | 18:41.65 | 2:27.57 | 84140 | 95221
13 | 21:09.47 | 2:12.65 | 95222 | 105186
14 | 23:22.37 | 1:26.33 | 105187 | 111669
15 | 24:48.70 | 4:16.05 | 111670 | 130874
16 | 29:05.00 | 0:42.30 | 130875 | 134054
17 | 29:47.30 | 2:16.35 | 134055 | 144289
18 | 32:03.65 | 4:24.72 | 144290 | 164161
19 | 36:28.62 | 1:52.50 | 164162 | 172611
20 | 38:21.37 | 2:33.40 | 172612 | 184126
21 | 40:55.02 | 5:11.35 | 184127 | 207486
22 | 46:06.37 | 3:21.43 | 207487 | 222604
23 | 49:28.05 | 0:40.57 | 222605 | 225661
24 | 50:08.62 | 2:34.45 | 225662 | 237256


Range status and errors

Selected range

Filename C:\EACRip\VARIOUS\PURCELL COLLECTION (John Eliot Gardiner) (Erato, 1994)\CD7 - Timon of Athens. Dioclesian (1)\Purcell - Timon of Athens. Dioclesian (Disc 1) - John Eliot Gardiner.wav

Peak level 100.0 %
Extraction speed 8.2 X
Range quality 100.0 %
Test CRC F113CA8A
Copy CRC F113CA8A
Copy OK

No errors occurred


AccurateRip summary

Track 1 accurately ripped (confidence 11) [B0C21E30] (AR v2)
Track 2 accurately ripped (confidence 11) [EB33170B] (AR v2)
Track 3 accurately ripped (confidence 11) [CE0C2479] (AR v2)
Track 4 accurately ripped (confidence 11) [11AAE81D] (AR v2)
Track 5 accurately ripped (confidence 11) [FF6751AE] (AR v2)
Track 6 accurately ripped (confidence 11) [87941B49] (AR v2)
Track 7 accurately ripped (confidence 11) [79ADB6FC] (AR v2)
Track 8 accurately ripped (confidence 11) [746EE5FD] (AR v2)
Track 9 accurately ripped (confidence 11) [45301F9B] (AR v2)
Track 10 accurately ripped (confidence 11) [3D7BC816] (AR v2)
Track 11 accurately ripped (confidence 11) [5BA57797] (AR v2)
Track 12 accurately ripped (confidence 11) [FAADEE9E] (AR v2)
Track 13 accurately ripped (confidence 11) [98EE7C01] (AR v2)
Track 14 accurately ripped (confidence 11) [613A8549] (AR v2)
Track 15 accurately ripped (confidence 11) [6E2086BD] (AR v2)
Track 16 accurately ripped (confidence 11) [FE7A0879] (AR v2)
Track 17 accurately ripped (confidence 11) [FCEB6EFF] (AR v2)
Track 18 accurately ripped (confidence 11) [1234628E] (AR v2)
Track 19 accurately ripped (confidence 11) [AB5F6EEF] (AR v2)
Track 20 accurately ripped (confidence 11) [8C313BD3] (AR v2)
Track 21 accurately ripped (confidence 11) [80D8F84E] (AR v2)
Track 22 accurately ripped (confidence 11) [A6574B98] (AR v2)
Track 23 accurately ripped (confidence 11) [B85D4C25] (AR v2)
Track 24 accurately ripped (confidence 11) [32EA957E] (AR v2)

All tracks accurately ripped

End of status report

–– CUETools DB Plugin V2.1.6

[CTDB TOCID: TYI4VwjG_sETElkKZ3E9gjvNjN8-] found
Submit result: TYI4VwjG_sETElkKZ3E9gjvNjN8- has been confirmed
Track | CTDB Status
1 | (33/33) Accurately ripped
2 | (33/33) Accurately ripped
3 | (33/33) Accurately ripped
4 | (33/33) Accurately ripped
5 | (33/33) Accurately ripped
6 | (33/33) Accurately ripped
7 | (33/33) Accurately ripped
8 | (33/33) Accurately ripped
9 | (33/33) Accurately ripped
10 | (33/33) Accurately ripped
11 | (33/33) Accurately ripped
12 | (33/33) Accurately ripped
13 | (32/33) Accurately ripped
14 | (33/33) Accurately ripped
15 | (32/33) Accurately ripped
16 | (33/33) Accurately ripped
17 | (33/33) Accurately ripped
18 | (33/33) Accurately ripped
19 | (33/33) Accurately ripped
20 | (33/33) Accurately ripped
21 | (33/33) Accurately ripped
22 | (33/33) Accurately ripped
23 | (33/33) Accurately ripped
24 | (33/33) Accurately ripped


==== Log checksum 6D574EF7C2E397A98768C6E1154BF5D8FA2D259AA9FEA3B30D97B37BA61EAE2B ====


Exact Audio Copy V1.5 from 20. February 2020

EAC extraction logfile from 24. July 2020, 3:03

Lynne Dawson, Gillian Fisher, Rogers Covey-Crump, Paul Elliott, Michael George, Stephen Varcoe / Timon of Athens. Dioclesian (Disc 2)

Used drive : ATAPI iHAS124 F Adapter: 1 ID: 0

Read mode : Secure
Utilize accurate stream : Yes
Defeat audio cache : Yes
Make use of C2 pointers : No

Read offset correction : 6
Overread into Lead-In and Lead-Out : No
Fill up missing offset samples with silence : Yes
Delete leading and trailing silent blocks : No
Null samples used in CRC calculations : Yes
Used interface : Native Win32 interface for Win NT & 2000

Used output format : User Defined Encoder
Selected bitrate : 1024 kBit/s
Quality : High
Add ID3 tag : No
Command line compressor : C:\Program Files (x86)\Exact Audio Copy\FLAC\FLAC.EXE
Additional command line options : -6 -V -T "ARTIST=%artist%" -T "TITLE=%title%" -T "ALBUM=%albumtitle%" -T "DATE=%year%" -T "TRACKNUMBER=%tracknr%" -T "GENRE=%genre%" -T "COMMENT=%comment%" -T "BAND=%albuminterpret%" -T "ALBUMARTIST=%albuminterpret%" -T "COMPOSER=%composer%" %haslyrics%–tag-from-file=LYRICS="%lyricsfile%"%haslyrics% -T "DISCNUMBER=%cdnumber%" -T "TOTALDISCS=%totalcds%" -T "TOTALTRACKS=%numtracks%" %hascover%–picture="%coverfile%"%hascover% %source% -o %dest%


TOC of the extracted CD

Track | Start | Length | Start sector | End sector
––––––––––––––––––––––––––––-
1 | 0:00.00 | 2:28.27 | 0 | 11126
2 | 2:28.27 | 1:19.55 | 11127 | 17106
3 | 3:48.07 | 5:23.53 | 17107 | 41384
4 | 9:11.60 | 0:38.67 | 41385 | 44301
5 | 9:50.52 | 2:11.35 | 44302 | 54161
6 | 12:02.12 | 0:33.28 | 54162 | 56664
7 | 12:35.40 | 5:19.42 | 56665 | 80631
8 | 17:55.07 | 0:35.58 | 80632 | 83314
9 | 18:30.65 | 0:55.25 | 83315 | 87464
10 | 19:26.15 | 2:34.50 | 87465 | 99064
11 | 22:00.65 | 1:03.42 | 99065 | 103831
12 | 23:04.32 | 3:59.48 | 103832 | 121804
13 | 27:04.05 | 1:50.42 | 121805 | 130096
14 | 28:54.47 | 2:17.63 | 130097 | 140434
15 | 31:12.35 | 2:45.45 | 140435 | 152854
16 | 33:58.05 | 4:07.35 | 152855 | 171414
17 | 38:05.40 | 5:08.72 | 171415 | 194586
18 | 43:14.37 | 6:10.48 | 194587 | 222384
19 | 49:25.10 | 1:01.05 | 222385 | 226964
20 | 50:26.15 | 4:37.70 | 226965 | 247809
21 | 55:04.10 | 4:56.27 | 247810 | 270036


Range status and errors

Selected range

Filename C:\EACRip\VARIOUS\PURCELL COLLECTION (John Eliot Gardiner) (Erato, 1994)\CD8 - Dioclesian (2)\Purcell - Dioclesian (Disc 2) - John Eliot Gardiner.wav

Peak level 91.4 %
Extraction speed 9.1 X
Range quality 100.0 %
Test CRC 39CE18A7
Copy CRC 39CE18A7
Copy OK

No errors occurred


AccurateRip summary

Track 1 accurately ripped (confidence 6) [6DCF3FBA] (AR v2)
Track 2 accurately ripped (confidence 6) [DF4BF488] (AR v2)
Track 3 accurately ripped (confidence 6) [9FFB8CBA] (AR v2)
Track 4 accurately ripped (confidence 6) [7C9C6A0B] (AR v2)
Track 5 accurately ripped (confidence 6) [8EA13FBB] (AR v2)
Track 6 accurately ripped (confidence 6) [48C28C55] (AR v2)
Track 7 accurately ripped (confidence 6) [30E03A0C] (AR v2)
Track 8 accurately ripped (confidence 6) [70C3FA72] (AR v2)
Track 9 accurately ripped (confidence 6) [2319F39D] (AR v2)
Track 10 accurately ripped (confidence 6) [A31ACCE8] (AR v2)
Track 11 accurately ripped (confidence 6) [AF09959D] (AR v2)
Track 12 accurately ripped (confidence 6) [F1621090] (AR v2)
Track 13 accurately ripped (confidence 6) [63D2368F] (AR v2)
Track 14 accurately ripped (confidence 6) [28C0D568] (AR v2)
Track 15 accurately ripped (confidence 6) [F18628C5] (AR v2)
Track 16 accurately ripped (confidence 6) [AA7BA3B0] (AR v2)
Track 17 accurately ripped (confidence 6) [038DFB05] (AR v2)
Track 18 accurately ripped (confidence 6) [A696FC81] (AR v2)
Track 19 accurately ripped (confidence 6) [5210250C] (AR v2)
Track 20 accurately ripped (confidence 6) [8EB4CB32] (AR v2)
Track 21 accurately ripped (confidence 6) [8257E2C5] (AR v2)

All tracks accurately ripped

End of status report

–– CUETools DB Plugin V2.1.6

[CTDB TOCID: CK68qEIwxr_M_ToWJ5rq31RSMsk-] found
Submit result: CK68qEIwxr_M_ToWJ5rq31RSMsk- has been confirmed
Track | CTDB Status
1 | (32/33) Accurately ripped
2 | (33/33) Accurately ripped
3 | (33/33) Accurately ripped
4 | (33/33) Accurately ripped
5 | (33/33) Accurately ripped
6 | (33/33) Accurately ripped
7 | (32/33) Accurately ripped
8 | (33/33) Accurately ripped
9 | (33/33) Accurately ripped
10 | (33/33) Accurately ripped
11 | (33/33) Accurately ripped
12 | (33/33) Accurately ripped
13 | (33/33) Accurately ripped
14 | (33/33) Accurately ripped
15 | (33/33) Accurately ripped
16 | (33/33) Accurately ripped
17 | (33/33) Accurately ripped
18 | (33/33) Accurately ripped
19 | (33/33) Accurately ripped
20 | (32/33) Accurately ripped
21 | (33/33) Accurately ripped


==== Log checksum 2C2581F3A04F2376A1B649035F627944E2989E987E7EB116B0A061638C58D3F5 ====


John Eliot Gardiner, English Baroque Soloists - Purcell Collection [8CD] (1994)

Thanks to the original releaser